admin 发表于 2020-6-10 22:12:27

星之彩/异星之彩 Color.Out.of.Space.2019.720p.BluRay.x264-GECKOS 5.47GB





译  名 星之彩 / 异星之彩 / 时空之外的颜色 / 流星溢彩
片  名 Color Out of Space
年  代 2019
产  地 葡萄牙 / 美国 / 马来西亚
类  别 科幻 / 恐怖
语  言 英语
上映日期 2019-09-07(多伦多国际电影节) / 2020-01-24(美国)
IMDb评分6.3/10 from 5169 users
IMDb链接https://www.imdb.com/title/tt5073642
豆瓣评分 6.4/10 from 1881 users
豆瓣链接 https://movie.douban.com/subject/30307197/
片  长 111分钟
导  演 理查德·斯坦利 Richard Stanley
编  剧 理查德·斯坦利 Richard Stanley / H·P·洛夫克拉夫特 H.P. Lovecraft / Scarlett Amaris
主  演 尼古拉斯·凯奇 Nicolas Cage
     玛德琳娜·亚瑟 Madeleine Arthur
     艾略特·奈特 Elliot Knight
     乔莉·理查德森 Joely Richardson
     布雷丹·梅耶尔 Brendan Meyer
     汤米·钟 Tommy Chong
     考莉安卡·基尔彻 Q'orianka Kilcher
     朱利安·希威德 Julian Hilliard
     Brett W. Bachman
     Melissa Nearman


标  签 科幻 | 恐怖 | 克苏鲁 | H.P.洛夫克拉夫特 | 尼古拉斯凯奇 | 美国 | 超自然 | 美国电影

简  介

  一颗流光溢彩的太空陨石径直坠入新英格兰偏远庄园后,邪恶势力开始暗暗渗透静居于此的加德纳一家。不知不觉中,时间开始膨胀,自然逐渐呈现超凡脱俗的异世色调,而所有鲜亮美丽之物则受其影响纷纷异变腐败。
  本片由南非影人理查德·斯坦利执导,与斯嘉丽·阿马里斯合作改编自H·P·洛夫克拉夫特1927年同名短篇小说《异星之彩/流星溢彩(The Colour Out of Space)》,并由奥斯卡影帝尼古拉斯·凯奇领衔主演。
Video
ID                                       : 1
Format                                 : AVC
Format/Info                              : Advanced Video Codec
Format profile                           : High@L4
Format settings                        : CABAC / 5 Ref Frames
Format settings, CABAC                   : Yes
Format settings, Reference frames      : 5 frames
Codec ID                                 : V_MPEG4/ISO/AVC
Duration                                 : 1 h 50 min
Bit rate                                 : 5 601 kb/s
Width                                    : 1 280 pixels
Height                                 : 536 pixels
Display aspect ratio                     : 2.40:1
Frame rate mode                        : Constant
Frame rate                               : 24.000 FPS
Color space                              : YUV
Chroma subsampling                     : 4:2:0
Bit depth                              : 8 bits
Scan type                              : Progressive
Bits/(Pixel*Frame)                     : 0.340
Stream size                              : 4.30 GiB (79%)
Writing library                        : x264 core 159 r2991 1771b55
Encoding settings                        : cabac=1 / ref=5 / deblock=1:-3:-3 / analyse=0x3:0x113 / me=umh / subme=8 / psy=1 / psy_rd=1.00:0.00 / mixed_ref=1 / me_range=16 / chroma_me=1 / trellis=1 / 8x8dct=1 / cqm=0 / deadzone=21,11 / fast_pskip=1 / chroma_qp_offset=-2 / threads=17 / lookahead_threads=2 / sliced_threads=0 / nr=0 / decimate=1 / interlaced=0 / bluray_compat=0 / constrained_intra=0 / bframes=3 / b_pyramid=2 / b_adapt=1 / b_bias=0 / direct=3 / weightb=1 / open_gop=0 / weightp=2 / keyint=250 / keyint_min=24 / scenecut=40 / intra_refresh=0 / rc_lookahead=50 / rc=2pass / mbtree=1 / bitrate=5601 / ratetol=1.0 / qcomp=0.60 / qpmin=0 / qpmax=69 / qpstep=4 / cplxblur=20.0 / qblur=0.5 / ip_ratio=1.40 / aq=1:1.00
Language                                 : English
Default                                  : Yes
Forced                                 : No

Audio
ID                                       : 2
Format                                 : DTS
Format/Info                              : Digital Theater Systems
Codec ID                                 : A_DTS
Duration                                 : 1 h 50 min
Bit rate mode                            : Constant
Bit rate                                 : 1 509 kb/s
Channel(s)                               : 6 channels
Channel layout                           : C L R Ls Rs LFE
Sampling rate                            : 48.0 kHz
Frame rate                               : 93.750 FPS (512 SPF)
Bit depth                              : 24 bits
Compression mode                         : Lossy
Stream size                              : 1.16 GiB (21%)
Language                                 : English
Default                                  : Yes
Forced                                 : No

Menu
00:00:00.000                           : en:00:00:00.000
00:15:37.583                           : en:00:15:37.583
00:30:00.625                           : en:00:30:00.625
00:43:27.833                           : en:00:43:27.833
01:00:20.000                           : en:01:00:20.000
01:10:45.792                           : en:01:10:45.792
01:28:25.542                           : en:01:28:25.542
01:46:22.417                           : en:01:46:22.417

**** Hidden Message *****




guvsheny 发表于 2020-6-10 22:12:40


是个好电影!必须要看的!多谢分享!

小猪华华 发表于 2020-6-10 22:12:48

这个帖子不回对不起自己!我想我是一天也不能离开蓝光电影网

guvsheny 发表于 2020-6-13 02:37:17


什么时候出高清感谢楼主

hwnapoleon 发表于 2020-6-17 07:09:17

支持楼主大哥,谢谢楼主

zzwkoper 发表于 2020-6-17 10:49:21

楼主太厉害了!楼主,电影应该很好看我觉得蓝光电影下载真是个好地方!

cashbaby88 发表于 2020-6-26 01:15:39


下载保存,谢谢楼主

cashbaby88 发表于 2020-8-15 11:13:52


不错收了谢谢分享

ye9787 发表于 2020-12-4 11:26:02

新片子比较少,期待有等多的新电影可以下载。

vs0418vs 发表于 2021-3-6 09:27:00

星之彩/异星之彩 Color.Out.of.Space.2019.720p.BluRay.x264-GECKOS 5.47GB [修改]
页: [1] 2
查看完整版本: 星之彩/异星之彩 Color.Out.of.Space.2019.720p.BluRay.x264-GECKOS 5.47GB

郑重声明,本站所有作品片源来自互联网公开渠道,均为网友上传交流学习,影视版权均归原电影公司所有,如有侵犯版权,请与 2322694662@qq.com 联系,我们将立即删除。