admin 发表于 2021-2-13 17:38:22

亚洲风暴 Storm.Over.Asia.1928.720p.BluRay.x264-USURY 8.93GB

帖子完整标题:亚洲风暴 Storm.Over.Asia.1928.720p.BluRay.x264-USURY 8.93GB


译  名 亚洲风暴 / Storm Over Asia / 成吉思汗后代
片  名 Потомок Чингиз-хана
年  代 1928
产  地 苏联
类  别 剧情 / 历史 / 战争
语  言 俄语
上映日期 1929-02-11
IMDb评分7.1/10 from 1774 users
IMDb链接https://www.imdb.com/title/tt0019286
豆瓣评分 8.3/10 from 170 users
豆瓣链接 https://movie.douban.com/subject/1294357/
片  长 Germany: 82 分钟(restored and synchronised version)
导  演 伍瑟沃罗德·普多夫金 Vsevolod Pudovkin
编  剧 I. Novokshenov / Osip Brik
主  演 Valéry Inkijinoff
     I. Dedintsev
     Aleksandr Chistyakov
     Viktor Tsoppi
     F. Ivanov
     V. Pro


标  签 苏联 | 默片 | 普多夫金 | 1928 | 苏联电影 | 1920s | 剧情 | VsevolodPudovkin

简  介   

  1918年,在俄国革命影响下的蒙古。蒙古牧民贝尔带着珍贵的貂皮前往被英国干涉军队和白俄占据的要塞市场出售。商人强行低价收购他的貂皮。他不堪屈辱,愤而与商人发生冲突,最后逃往大漠。他加入游击队抗击白俄军队,不幸被捕。就在执行枪决时,他被发现是成吉思汗的后裔,被解救并被扶植成傀儡。白俄和英国干涉军想借他之手更好地统治蒙古。具有强烈民族自尊感的贝尔却毅然走上了反抗异族奴役与压迫的道路。他以成吉思汗子孙的名义,率领蒙古的各游牧民族,以风扫残云之势,驱逐了异族侵略者。
  本片是前苏联著名电影导演普多夫金在西方世界博得最高赞誉的一部杰作。与爱森斯坦相反,普多夫金以一个主人公为中心来展开描写,生动地刻画了贝尔这位思想觉悟的蒙古牧民形象。影片具有浓厚的人种学色彩,逼真地再现了蒙古游牧民族的生活和喇嘛寺院举行佛事的盛大景况。全片有完整的叙事结构,是一部雄伟的巨著。它以貂皮这个不起眼的细节逐步引发出惊天动地的大事件,剧情的张力依据一步一步强化的加速度,推进、堆积到一个点而予以总爆发。片尾荒原上骤起的风具有排山倒海之势,把侵略者吹得溃不成军,充分象征了被压迫民族不甘屈服、抗击强暴的伟大力量。这一震撼人心的高潮场面已成为经典而载入电影史册。Video
ID                                       : 1
Format                                 : AVC
Format/Info                              : Advanced Video Codec
Format profile                           : High@L4
Format settings                        : CABAC / 11 Ref Frames
Format settings, CABAC                   : Yes
Format settings, Reference frames      : 11 frames
Codec ID                                 : V_MPEG4/ISO/AVC
Duration                                 : 2 h 10 min
Bit rate                                 : 8 617 kb/s
Width                                    : 986 pixels
Height                                 : 720 pixels
Display aspect ratio                     : 4:3
Frame rate mode                        : Constant
Frame rate                               : 17.667 FPS
Color space                              : YUV
Chroma subsampling                     : 4:2:0
Bit depth                              : 8 bits
Scan type                              : Progressive
Bits/(Pixel*Frame)                     : 0.687
Stream size                              : 7.87 GiB (88%)
Writing library                        : x264 core 161 r3018 db0d417
Encoding settings                        : cabac=1 / ref=11 / deblock=1:-3:-3 / analyse=0x3:0x133 / me=umh / subme=10 / psy=1 / psy_rd=1.00:0.15 / mixed_ref=1 / me_range=24 / chroma_me=1 / trellis=2 / 8x8dct=1 / cqm=0 / deadzone=21,11 / fast_pskip=1 / chroma_qp_offset=-3 / threads=18 / lookahead_threads=3 / sliced_threads=0 / nr=0 / decimate=1 / interlaced=0 / bluray_compat=0 / constrained_intra=0 / bframes=8 / b_pyramid=2 / b_adapt=2 / b_bias=0 / direct=3 / weightb=1 / open_gop=0 / weightp=2 / keyint=250 / keyint_min=17 / scenecut=40 / intra_refresh=0 / rc_lookahead=60 / rc=crf / mbtree=1 / crf=19.5 / qcomp=0.60 / qpmin=0 / qpmax=69 / qpstep=4 / ip_ratio=1.40 / aq=3:0.50
Language                                 : English
Default                                  : Yes
Forced                                 : No
Color range                              : Limited
Matrix coefficients                      : BT.709

Audio #1
ID                                       : 2
Format                                 : FLAC
Format/Info                              : Free Lossless Audio Codec
Codec ID                                 : A_FLAC
Duration                                 : 2 h 10 min
Bit rate mode                            : Variable
Bit rate                                 : 1 075 kb/s
Channel(s)                               : 2 channels
Channel layout                           : L R
Sampling rate                            : 48.0 kHz
Frame rate                               : 11.719 FPS (4096 SPF)
Bit depth                              : 24 bits
Compression mode                         : Lossless
Stream size                              : 1 006 MiB (11%)
Title                                    : Score
Writing library                        : libFLAC 1.2.1 (UTC 2007-09-17)
Default                                  : Yes
Forced                                 : No

Audio #2
ID                                       : 3
Format                                 : AAC LC
Format/Info                              : Advanced Audio Codec Low Complexity
Codec ID                                 : A_AAC-2
Duration                                 : 2 h 10 min
Bit rate                                 : 80.4 kb/s
Channel(s)                               : 2 channels
Channel layout                           : L R
Sampling rate                            : 48.0 kHz
Frame rate                               : 46.875 FPS (1024 SPF)
Compression mode                         : Lossy
Delay relative to video                  : 9 ms
Stream size                              : 75.2 MiB (1%)
Title                                    : English Commentary by Jan-Christopher Horak
Language                                 : English
Default                                  : No
Forced                                 : No

Text #1
ID                                       : 4
Format                                 : UTF-8
Codec ID                                 : S_TEXT/UTF8
Codec ID/Info                            : UTF-8 Plain Text
Duration                                 : 2 h 10 min
Bit rate                                 : 6 b/s
Count of elements                        : 221
Stream size                              : 5.89 KiB (0%)
Title                                    : English
Language                                 : English
Default                                  : Yes
Forced                                 : Yes

Text #2
ID                                       : 5
Format                                 : PGS
Muxing mode                              : zlib
Codec ID                                 : S_HDMV/PGS
Codec ID/Info                            : Picture based subtitle format used on BDs/HD-DVDs
Duration                                 : 2 h 10 min
Bit rate                                 : 1 465 b/s
Count of elements                        : 444
Stream size                              : 1.37 MiB (0%)
Title                                    : English
Language                                 : English
Default                                  : No
Forced                                 : No

Menu
00:00:00.000                           : en:00:00:00.000
00:00:50.217                           : en:00:00:50.217
00:11:35.945                           : en:00:11:35.945
00:26:49.024                           : en:00:26:49.024
00:39:31.953                           : en:00:39:31.953
00:52:35.944                           : en:00:52:35.944
01:06:05.420                           : en:01:06:05.420
01:22:35.909                           : en:01:22:35.909
01:36:47.760                           : en:01:36:47.760
01:52:08.430                           : en:01:52:08.430
02:05:23.641                           : en:02:05:23.641


**** Hidden Message *****



hwnapoleon 发表于 2021-2-13 17:38:32

这是我喜欢的电影

cashbaby88 发表于 2021-2-14 15:48:07

楼主太厉害了!楼主,电影应该很好看我觉得蓝光电影下载真是个好地方!

hwnapoleon 发表于 2021-2-15 21:48:17

支持楼主大哥,谢谢楼主

gddswlz 发表于 2021-2-16 01:33:24

感谢楼主,哈哈哈哈哈哈

saraatum 发表于 2021-2-17 01:29:52


下载保存,谢谢楼主

cashbaby88 发表于 2021-2-20 15:18:17


不错收了谢谢分享

宁采臣 发表于 2021-2-28 23:33:54

这个帖子不回对不起自己!我想我是一天也不能离开蓝光电影网

zhuoshiyong 发表于 2021-4-9 20:37:00

谢谢lz找的资源

千里马 发表于 2021-4-11 16:25:05

亚洲, 亚洲风暴, 风暴, storm, over
页: [1] 2
查看完整版本: 亚洲风暴 Storm.Over.Asia.1928.720p.BluRay.x264-USURY 8.93GB

郑重声明,本站所有作品片源来自互联网公开渠道,均为网友上传交流学习,影视版权均归原电影公司所有,如有侵犯版权,请与 2322694662@qq.com 联系,我们将立即删除。