admin 发表于 2021-2-13 17:39:02

母亲 Mother.1926.720p.BluRay.x264-USURY 6.12GB

帖子完整标题:母亲 Mother.1926.720p.BluRay.x264-USURY 6.12GB


译  名 母亲 / Mother
片  名 Мать
年  代 1926
产  地 苏联
类  别 剧情
语  言 无对白
上映日期 1926-10-11
IMDb评分7.6/10 from 2411 users
IMDb链接https://www.imdb.com/title/tt0017128
豆瓣评分 8.2/10 from 1012 users
豆瓣链接 https://movie.douban.com/subject/1297803/
片  长 89 分钟(24 fps)
导  演 伍瑟沃罗德·普多夫金 Vsevolod Pudovkin
编  剧 高尔基 Maxim Gorky / Nathan Zarkhi
主  演 Vera Baranovskaya
     Nikolai Batalov
     Aleksandr Chistyakov
     Anna Zemtsova
     Ivan Koval-Samborsky
     N. Vidonov


标  签 普多夫金 | 默片 | 苏联 | 1926 | 苏联电影 | 前苏联 | 1920s | 苏俄

简  介   

  This is one of the classic Soviet silent films. The story is about a family torn apart by a worker's strike. At first, the mother wants to protect her family from the troublemakers, but eventually she realizes that her son is right and the workers should strike. The plot is similar to other Soviet films of the era but does focus more on the individual than some of Eisenstein's films. The mother and son do represent the collective but they are also strong characters on their own.
  The best part of the film is the editing. It is always sharp and quick. When there is action, the edits are fast and give the viewer a sense of chaos. The Soviets were masters of montage and this film is a prime example. The acting is also better than in most silent films. It is clear that the actors come from the serious stage and not Vaudeville. The cinematography is somewhat average, though, and the film feels a little flat at times. It is not perfect, but it is worth seeing for all and essential viewing for those interested in Russian film or montage.
  【SOURCE: http://www.imdb.com/title/tt0017128/ 】Video
ID                                       : 1
Format                                 : AVC
Format/Info                              : Advanced Video Codec
Format profile                           : High@L4
Format settings                        : CABAC / 11 Ref Frames
Format settings, CABAC                   : Yes
Format settings, Reference frames      : 11 frames
Codec ID                                 : V_MPEG4/ISO/AVC
Duration                                 : 1 h 27 min
Bit rate                                 : 8 874 kb/s
Width                                    : 974 pixels
Height                                 : 720 pixels
Display aspect ratio                     : 4:3
Frame rate mode                        : Constant
Frame rate                               : 19.980 (20000/1001/189150) FPS
Color space                              : YUV
Chroma subsampling                     : 4:2:0
Bit depth                              : 8 bits
Scan type                              : Progressive
Bits/(Pixel*Frame)                     : 0.633
Stream size                              : 5.41 GiB (88%)
Writing library                        : x264 core 161 r3018 db0d417
Encoding settings                        : cabac=1 / ref=11 / deblock=1:-3:-3 / analyse=0x3:0x133 / me=umh / subme=10 / psy=1 / psy_rd=1.00:0.15 / mixed_ref=1 / me_range=24 / chroma_me=1 / trellis=2 / 8x8dct=1 / cqm=0 / deadzone=21,11 / fast_pskip=1 / chroma_qp_offset=-3 / threads=18 / lookahead_threads=3 / sliced_threads=0 / nr=0 / decimate=1 / interlaced=0 / bluray_compat=0 / constrained_intra=0 / bframes=8 / b_pyramid=2 / b_adapt=2 / b_bias=0 / direct=3 / weightb=1 / open_gop=0 / weightp=2 / keyint=250 / keyint_min=19 / scenecut=40 / intra_refresh=0 / rc_lookahead=60 / rc=crf / mbtree=1 / crf=17.8 / qcomp=0.60 / qpmin=0 / qpmax=69 / qpstep=4 / ip_ratio=1.40 / aq=3:0.50
Language                                 : English
Default                                  : Yes
Forced                                 : No
Color range                              : Limited
Matrix coefficients                      : BT.709

Audio #1
ID                                       : 2
Format                                 : FLAC
Format/Info                              : Free Lossless Audio Codec
Codec ID                                 : A_FLAC
Duration                                 : 1 h 27 min
Bit rate mode                            : Variable
Bit rate                                 : 1 076 kb/s
Channel(s)                               : 2 channels
Channel layout                           : L R
Sampling rate                            : 48.0 kHz
Frame rate                               : 11.719 FPS (4096 SPF)
Bit depth                              : 24 bits
Compression mode                         : Lossless
Stream size                              : 671 MiB (11%)
Title                                    : Score
Writing library                        : libFLAC 1.2.1 (UTC 2007-09-17)
Default                                  : Yes
Forced                                 : No

Audio #2
ID                                       : 3
Format                                 : AAC LC
Format/Info                              : Advanced Audio Codec Low Complexity
Codec ID                                 : A_AAC-2
Duration                                 : 1 h 27 min
Bit rate                                 : 96.0 kb/s
Channel(s)                               : 2 channels
Channel layout                           : L R
Sampling rate                            : 48.0 kHz
Frame rate                               : 46.875 FPS (1024 SPF)
Compression mode                         : Lossy
Delay relative to video                  : 9 ms
Stream size                              : 59.0 MiB (1%)
Title                                    : English Commentary by Peter Bagrov
Language                                 : English
Default                                  : No
Forced                                 : No

Menu
00:00:00.000                           : en:00:00:00.000
00:00:54.012                           : en:00:00:54.012
00:09:50.590                           : en:00:09:50.590
00:19:30.753                           : en:00:19:30.753
00:30:00.465                           : en:00:30:00.465
00:40:20.251                           : en:00:40:20.251
00:51:02.559                           : en:00:51:02.559
01:01:48.997                           : en:01:01:48.997
01:10:05.701                           : en:01:10:05.701
01:18:14.899                           : en:01:18:14.899

**** Hidden Message *****




lwing1985 发表于 2021-2-13 17:39:11


是个好电影!必须要看的!多谢分享!

hwnapoleon 发表于 2021-2-14 08:01:19


下载保存,谢谢楼主

whoami67 发表于 2021-2-15 10:12:29


什么时候出高清感谢楼主

rui657 发表于 2021-2-17 10:08:37


不错收了谢谢分享

2816623 发表于 2021-2-17 20:59:58

楼主太厉害了!楼主,电影应该很好看我觉得蓝光电影下载真是个好地方!

hwnapoleon 发表于 2021-2-18 07:33:17

这个帖子不回对不起自己!我想我是一天也不能离开蓝光电影网

hwnapoleon 发表于 2021-2-18 10:19:09

感谢楼主的无私分享!要想蓝光高清电影网好 就靠你我他

宁采臣 发表于 2021-2-20 09:28:03

这是我喜欢的电影

jdhdej 发表于 2021-2-20 21:23:32

支持楼主大哥,谢谢楼主
页: [1] 2
查看完整版本: 母亲 Mother.1926.720p.BluRay.x264-USURY 6.12GB

郑重声明,本站所有作品片源来自互联网公开渠道,均为网友上传交流学习,影视版权均归原电影公司所有,如有侵犯版权,请与 2322694662@qq.com 联系,我们将立即删除。