快捷导航
查看: 9871|回复: 19

[剧情] 寄生虫 Parasite.2019.KOREAN.720p.BluRay.x264.DTS-FGT 6.47GB

[复制链接]
  • TA的每日心情
    开心
    昨天 23:39
  • 签到天数: 265 天

    [LV.8]以坛为家I

    1万

    主题

    713

    回帖

    20万

    积分

    管理员

    蓝光君

    Rank: 9Rank: 9Rank: 9

    积分
    207918

    活跃会员热心会员推广达人突出贡献优秀版主荣誉管理论坛元老

    QQ
    发表于 2019-12-11 21:02:44 | 显示全部楼层 |阅读模式



    寄生虫 Parasite.2019.KOREAN.720p.BluRay.x264.DTS-FGT 6.47GB-1.png

    译  名 寄生虫 / Gisaengchung / Parasite / 上流寄生族(港) / 寄生上流(台) / ?????
    片  名 ???
    年  代 2019
    产  地 韩国
    类  别 剧情
    语  言 韩语
    上映日期 2019-05-21(戛纳电影节) / 2019-05-30(韩国)
    IMDb评分  8.6/10 from 10105 users
    IMDb链接  http://www.imdb.com/title/tt6751668
    豆瓣评分 8.9/10 from 177472 users
    豆瓣链接 https://movie.douban.com/subject/27010768/
    片  长 132分钟
    导  演 奉俊昊 Joon-ho Bong
    编  剧 奉俊昊 Joon-ho Bong
    主  演 宋康昊 Kang-ho Song
           李善均 Seon-gyun Lee
           赵汝贞 Yeo-Jeong Jo
           崔宇植 Woo-Sik Choi
           朴素丹 Su-dam Park


    标  签 韩国 | 人性 | 剧情 | 社会 | 2019 | 黑色幽默 | 戛纳 | 金棕榈

    简  介  

      《寄生虫》讲述了发生在身份地位悬殊的两个家庭身上的故事:宋康昊饰演的无业游民父亲基泽,让寄托了家人生计希望的大儿子(崔宇植 饰)前往IT公司老总朴社长(李善均 饰)家应聘课外教师,随之发生了一连串意外事件。

    获奖情况  

      第72届戛纳电影节(2019)
      主竞赛单元 金棕榈奖 奉俊昊
    1. Video
    2. ID                                       : 1
    3. Format                                   : AVC
    4. Format/Info                              : Advanced Video Codec
    5. Format profile                           : High@L4
    6. Format settings                          : CABAC / 4 Ref Frames
    7. Format settings, CABAC                   : Yes
    8. Format settings, Reference frames        : 4 frames
    9. Codec ID                                 : V_MPEG4/ISO/AVC
    10. Duration                                 : 2 h 12 min
    11. Bit rate                                 : 5 500 kb/s
    12. Width                                    : 1 280 pixels
    13. Height                                   : 536 pixels
    14. Display aspect ratio                     : 2.40:1
    15. Frame rate mode                          : Constant
    16. Frame rate                               : 23.976 (24000/1001) FPS
    17. Color space                              : YUV
    18. Chroma subsampling                       : 4:2:0
    19. Bit depth                                : 8 bits
    20. Scan type                                : Progressive
    21. Bits/(Pixel*Frame)                       : 0.334
    22. Stream size                              : 5.07 GiB (78%)
    23. Title                                    : Parasite.2019.KOREAN.720p.BluRay.x264.DTS-FGT
    24. Writing library                          : x264 core 148 r2795M aaa9aa8
    25. Encoding settings                        : cabac=1 / ref=4 / deblock=1:-2:-2 / analyse=0x3:0x113 / me=umh / subme=9 / psy=1 / psy_rd=1.00:0.15 / mixed_ref=1 / me_range=16 / chroma_me=1 / trellis=2 / 8x8dct=1 / cqm=0 / deadzone=21,11 / fast_pskip=1 / chroma_qp_offset=-3 / threads=72 / lookahead_threads=3 / sliced_threads=0 / nr=0 / decimate=1 / interlaced=0 / bluray_compat=0 / constrained_intra=0 / bframes=3 / b_pyramid=2 / b_adapt=1 / b_bias=0 / direct=3 / weightb=1 / open_gop=0 / weightp=2 / keyint=250 / keyint_min=25 / scenecut=40 / intra_refresh=0 / rc_lookahead=50 / rc=2pass / mbtree=1 / bitrate=5500 / ratetol=1.0 / qcomp=0.60 / qpmin=0 / qpmax=69 / qpstep=4 / cplxblur=20.0 / qblur=0.5 / vbv_maxrate=31250 / vbv_bufsize=31250 / nal_hrd=none / filler=0 / ip_ratio=1.40 / aq=1:1.00
    26. Language                                 : Korean
    27. Default                                  : Yes
    28. Forced                                   : No

    29. Audio
    30. ID                                       : 2
    31. Format                                   : DTS
    32. Format/Info                              : Digital Theater Systems
    33. Codec ID                                 : A_DTS
    34. Duration                                 : 2 h 12 min
    35. Bit rate mode                            : Constant
    36. Bit rate                                 : 1 509 kb/s
    37. Channel(s)                               : 6 channels
    38. Channel layout                           : C L R Ls Rs LFE
    39. Sampling rate                            : 48.0 kHz
    40. Frame rate                               : 93.750 FPS (512 SPF)
    41. Bit depth                                : 24 bits
    42. Compression mode                         : Lossy
    43. Stream size                              : 1.39 GiB (22%)
    44. Title                                    : Parasite.2019.KOREAN.720p.BluRay.x264.DTS-FGT
    45. Language                                 : Korean
    46. Default                                  : Yes
    47. Forced                                   : No

    48. Text
    49. ID                                       : 3
    50. Format                                   : UTF-8
    51. Codec ID                                 : S_TEXT/UTF8
    52. Codec ID/Info                            : UTF-8 Plain Text
    53. Duration                                 : 2 h 5 min
    54. Bit rate                                 : 53 b/s
    55. Count of elements                        : 1647
    56. Stream size                              : 49.3 KiB (0%)
    57. Language                                 : English
    58. Default                                  : Yes
    59. Forced                                   : No

    60. Menu
    61. 00:00:00.000                             : en:Chapter 1
    62. 00:05:44.802                             : en:Chapter 2
    63. 00:12:16.610                             : en:Chapter 3
    64. 00:20:35.484                             : en:Chapter 4
    65. 00:29:21.926                             : en:Chapter 5
    66. 00:37:05.348                             : en:Chapter 6
    67. 00:46:19.943                             : en:Chapter 7
    68. 00:53:52.979                             : en:Chapter 8
    69. 01:02:55.646                             : en:Chapter 9
    70. 01:12:10.242                             : en:Chapter 10
    71. 01:23:25.834                             : en:Chapter 11
    72. 01:32:19.659                             : en:Chapter 12
    73. 01:41:22.284                             : en:Chapter 13
    74. 01:48:21.912                             : en:Chapter 14
    75. 01:56:07.502                             : en:Chapter 15
    76. 02:07:06.744                             : en:Chapter 16
    复制代码

    寄生虫 Parasite.2019.KOREAN.720p.BluRay.x264.DTS-FGT 6.47GB-2.png 寄生虫 Parasite.2019.KOREAN.720p.BluRay.x264.DTS-FGT 6.47GB-4.png

    游客,如果您要查看本帖隐藏内容请回复



    大咖网站我来了!
    回复

    使用道具 举报

    该用户从未签到

    0

    主题

    2084

    回帖

    2163

    积分

    金牌会员

    Rank: 6Rank: 6

    积分
    2163
    发表于 2019-12-11 21:03:06 | 显示全部楼层
    回复 支持 反对

    使用道具 举报

    该用户从未签到

    0

    主题

    8570

    回帖

    8576

    积分

    论坛元老

    Rank: 8Rank: 8

    积分
    8576
    发表于 2019-12-12 17:46:12 | 显示全部楼层

    是个好电影!必须要看的!多谢分享!
    回复 支持 反对

    使用道具 举报

    该用户从未签到

    0

    主题

    2447

    回帖

    2689

    积分

    金牌会员

    Rank: 6Rank: 6

    积分
    2689
    发表于 2019-12-15 18:31:49 | 显示全部楼层
    楼主太厉害了!楼主,电影应该很好看我觉得蓝光电影下载真是个好地方!
    回复 支持 反对

    使用道具 举报

  • TA的每日心情
    慵懒
    2022-9-15 21:40
  • 签到天数: 1 天

    [LV.1]初来乍到

    0

    主题

    2万

    回帖

    2万

    积分

    论坛元老

    Rank: 8Rank: 8

    积分
    29203
    发表于 2019-12-17 12:49:35 | 显示全部楼层
    回复 支持 反对

    使用道具 举报

    该用户从未签到

    0

    主题

    1643

    回帖

    1692

    积分

    金牌会员

    Rank: 6Rank: 6

    积分
    1692
    发表于 2019-12-17 16:40:13 | 显示全部楼层

    非常精彩的电影,下来收藏,感谢楼主
    回复 支持 反对

    使用道具 举报

    该用户从未签到

    0

    主题

    6372

    回帖

    6921

    积分

    论坛元老

    Rank: 8Rank: 8

    积分
    6921
    发表于 2019-12-20 17:40:22 | 显示全部楼层
    回复 支持 反对

    使用道具 举报

    该用户从未签到

    0

    主题

    6372

    回帖

    6921

    积分

    论坛元老

    Rank: 8Rank: 8

    积分
    6921
    发表于 2019-12-21 16:52:50 | 显示全部楼层
    这个帖子不回对不起自己!我想我是一天也不能离开蓝光电影网
    回复 支持 反对

    使用道具 举报

  • TA的每日心情
    难过
    2019-12-21 07:50
  • 签到天数: 3 天

    [LV.2]偶尔看看I

    0

    主题

    9

    回帖

    24

    积分

    新手上路

    Rank: 1

    积分
    24
    发表于 2019-12-21 21:59:16 | 显示全部楼层
    看看看看看看看看看看看看看看看看看看
    回复 支持 反对

    使用道具 举报

  • TA的每日心情
    慵懒
    2022-9-15 21:40
  • 签到天数: 1 天

    [LV.1]初来乍到

    0

    主题

    2万

    回帖

    2万

    积分

    论坛元老

    Rank: 8Rank: 8

    积分
    29203
    发表于 2019-12-21 22:07:32 | 显示全部楼层
    感谢楼主的无私分享!要想蓝光高清电影网好 就靠你我他
    回复 支持 反对

    使用道具 举报

    懒得打字嘛,点击右侧快捷回复 【右侧内容,后台自定义】
    您需要登录后才可以回帖 登录 | 立即注册

    本版积分规则

    郑重声明,本站所有作品片源来自互联网公开渠道,均为网友上传交流学习,影视版权均归原电影公司所有,如有侵犯版权,请与 2322694662@qq.com 联系,我们将立即删除。

    小黑屋|手机版|Archiver|投诉|51la|蓝光电影下载

    返回顶部
    x

    客服微信扫码添加咨询

    GMT+8, 2024-6-16 04:50 , Processed in 0.138587 second(s), 40 queries , Gzip On.

    Powered by Discuz! X3.4

    © 2001-2013 Comsenz Inc.

    快速回复 返回顶部 返回列表