快捷导航
查看: 9611|回复: 23

[动作] 逃组 Hit-and-Run.Squad.2019.720p.BluRay.x264-GiMCHi 5.46GB

[复制链接]
  • TA的每日心情
    开心
    2023-1-15 19:47
  • 签到天数: 258 天

    [LV.8]以坛为家I

    1万

    主题

    668

    回帖

    17万

    积分

    管理员

    蓝光君

    Rank: 9Rank: 9Rank: 9

    积分
    173304

    活跃会员热心会员推广达人突出贡献优秀版主荣誉管理论坛元老

    QQ
    发表于 2020-5-14 23:23:38 | 显示全部楼层 |阅读模式



    逃组 Hit-and-Run.Squad.2019.720p.BluRay.x264-GiMCHi 5.46GB-1.png

    译  名 逃组 / Hit-and-Run Squad / 肇事组 / 肇事逃逸调查组 / 肇逃计划 / 逃逸事故调查组 / 飙风特警队(台)
    片  名 ??
    年  代 2019
    产  地 韩国
    类  别 动作
    语  言 韩语
    上映日期 2019-01-30(韩国)
    IMDb评分  5.4/10 from 375 users
    IMDb链接  https://www.imdb.com/title/tt8119844
    豆瓣评分 6.4/10 from 4947 users
    豆瓣链接 https://movie.douban.com/subject/27187912/
    片  长 133分钟
    导  演 韩俊熙 Jun-hee Han
    主  演 孔晓振 Hyo-jin Kong
           柳俊烈 Jun-yeol Ryu
           曹政奭 Jeong-seok Cho
           廉晶雅 Jung-ah Yum
           全慧珍 Hye-jin Jeon
           金起范 Key
           孙锡久 Sukku Son


    标  签 韩国 | 犯罪 | 动作 | 警匪 | 2019 | 赛车 | 人性 | 剧情

    简  介  

      对车拥有特别感觉的肇事逃逸专案组王牌巡警民载(柳俊烈饰)和从广域搜查队被降职到肇事逃逸专案组的刑警诗妍(孔晓振饰),为了抓住痴迷于速度和车,甚至不惜犯罪的在哲(曹政奭饰)而一同努力

    获奖情况  

      第55届百想艺术大赏(2019)
      电影类 最佳新人男演员(提名) 孙锡久
    1. Video
    2. ID                                       : 1
    3. Format                                   : AVC
    4. Format/Info                              : Advanced Video Codec
    5. Format profile                           : High@L4
    6. Format settings                          : CABAC / 5 Ref Frames
    7. Format settings, CABAC                   : Yes
    8. Format settings, Reference frames        : 5 frames
    9. Codec ID                                 : V_MPEG4/ISO/AVC
    10. Duration                                 : 2 h 13 min
    11. Bit rate                                 : 4 364 kb/s
    12. Width                                    : 1 280 pixels
    13. Height                                   : 536 pixels
    14. Display aspect ratio                     : 2.40:1
    15. Frame rate mode                          : Constant
    16. Frame rate                               : 23.976 (24000/1001) FPS
    17. Color space                              : YUV
    18. Chroma subsampling                       : 4:2:0
    19. Bit depth                                : 8 bits
    20. Scan type                                : Progressive
    21. Bits/(Pixel*Frame)                       : 0.265
    22. Stream size                              : 4.06 GiB (74%)
    23. Writing library                          : x264 core 159 r2991 1771b55
    24. Encoding settings                        : cabac=1 / ref=5 / deblock=1:0:0 / analyse=0x3:0x133 / me=umh / subme=7 / psy=1 / psy_rd=1.00:0.00 / mixed_ref=1 / me_range=16 / chroma_me=1 / trellis=1 / 8x8dct=1 / cqm=0 / deadzone=21,11 / fast_pskip=0 / chroma_qp_offset=-2 / threads=12 / lookahead_threads=2 / sliced_threads=0 / nr=0 / decimate=1 / interlaced=0 / bluray_compat=0 / constrained_intra=0 / bframes=3 / b_pyramid=2 / b_adapt=2 / b_bias=0 / direct=3 / weightb=1 / open_gop=0 / weightp=2 / keyint=240 / keyint_min=23 / scenecut=40 / intra_refresh=0 / rc_lookahead=50 / rc=2pass / mbtree=1 / bitrate=4364 / ratetol=1.0 / qcomp=0.60 / qpmin=0 / qpmax=69 / qpstep=4 / cplxblur=20.0 / qblur=0.5 / ip_ratio=1.40 / aq=1:1.00
    25. Language                                 : English
    26. Default                                  : Yes
    27. Forced                                   : No

    28. Audio
    29. ID                                       : 2
    30. Format                                   : DTS
    31. Format/Info                              : Digital Theater Systems
    32. Codec ID                                 : A_DTS
    33. Duration                                 : 2 h 13 min
    34. Bit rate mode                            : Constant
    35. Bit rate                                 : 1 509 kb/s
    36. Channel(s)                               : 6 channels
    37. Channel layout                           : C L R Ls Rs LFE
    38. Sampling rate                            : 48.0 kHz
    39. Frame rate                               : 93.750 FPS (512 SPF)
    40. Bit depth                                : 24 bits
    41. Compression mode                         : Lossy
    42. Stream size                              : 1.40 GiB (26%)
    43. Title                                    : Korean
    44. Language                                 : Korean
    45. Default                                  : Yes
    46. Forced                                   : No

    47. Text
    48. ID                                       : 3
    49. Format                                   : UTF-8
    50. Codec ID                                 : S_TEXT/UTF8
    51. Codec ID/Info                            : UTF-8 Plain Text
    52. Duration                                 : 2 h 8 min
    53. Bit rate                                 : 40 b/s
    54. Count of elements                        : 1421
    55. Stream size                              : 38.2 KiB (0%)
    56. Title                                    : English
    57. Language                                 : English
    58. Default                                  : Yes
    59. Forced                                   : No

    60. Menu
    61. 00:00:00.000                             : en:Chapter 01
    62. 00:10:39.472                             : en:Chapter 02
    63. 00:21:54.522                             : en:Chapter 03
    64. 00:33:39.935                             : en:Chapter 04
    65. 00:47:59.126                             : en:Chapter 05
    66. 00:57:36.161                             : en:Chapter 06
    67. 01:07:59.200                             : en:Chapter 07
    68. 01:15:50.004                             : en:Chapter 08
    69. 01:27:12.185                             : en:Chapter 09
    70. 01:38:15.306                             : en:Chapter 10
    71. 01:50:05.265                             : en:Chapter 11
    72. 02:04:53.611                             : en:Chapter 12
    复制代码

    逃组 Hit-and-Run.Squad.2019.720p.BluRay.x264-GiMCHi 5.46GB-2.png

    游客,如果您要查看本帖隐藏内容请回复



    找个高清片 欣赏欣赏 休息休息.....
    回复

    使用道具 举报

    该用户从未签到

    0

    主题

    669

    回帖

    605

    积分

    高级会员

    Rank: 4

    积分
    605
    发表于 2020-5-15 04:04:24 | 显示全部楼层

    是个好电影!必须要看的!多谢分享!
    回复 支持 反对

    使用道具 举报

    该用户从未签到

    0

    主题

    3953

    回帖

    3584

    积分

    论坛元老

    Rank: 8Rank: 8

    积分
    3584
    发表于 2020-5-15 05:53:25 | 显示全部楼层
    回复 支持 反对

    使用道具 举报

    该用户从未签到

    0

    主题

    5008

    回帖

    4516

    积分

    论坛元老

    Rank: 8Rank: 8

    积分
    4516
    发表于 2020-5-16 09:06:18 | 显示全部楼层
    回复 支持 反对

    使用道具 举报

  • TA的每日心情
    慵懒
    2022-9-15 21:40
  • 签到天数: 1 天

    [LV.1]初来乍到

    0

    主题

    2万

    回帖

    2万

    积分

    论坛元老

    Rank: 8Rank: 8

    积分
    21476
    发表于 2020-5-16 09:26:48 | 显示全部楼层
    回复 支持 反对

    使用道具 举报

  • TA的每日心情
    开心
    2016-6-1 14:06
  • 签到天数: 1 天

    [LV.1]初来乍到

    0

    主题

    1227

    回帖

    1123

    积分

    金牌会员

    Rank: 6Rank: 6

    积分
    1123
    发表于 2020-5-22 11:40:58 | 显示全部楼层
    楼主太厉害了!楼主,电影应该很好看我觉得蓝光电影下载真是个好地方!
    回复 支持 反对

    使用道具 举报

  • TA的每日心情
    慵懒
    2022-9-15 21:40
  • 签到天数: 1 天

    [LV.1]初来乍到

    0

    主题

    2万

    回帖

    2万

    积分

    论坛元老

    Rank: 8Rank: 8

    积分
    21476
    发表于 2020-6-4 16:30:34 | 显示全部楼层
    回复 支持 反对

    使用道具 举报

  • TA的每日心情
    擦汗
    4 天前
  • 签到天数: 749 天

    [LV.9]以坛为家II

    6

    主题

    750

    回帖

    5368

    积分

    论坛元老

    Rank: 8Rank: 8

    积分
    5368
    发表于 2020-6-6 02:18:32 | 显示全部楼层
    回复 支持 反对

    使用道具 举报

  • TA的每日心情
    擦汗
    4 天前
  • 签到天数: 295 天

    [LV.8]以坛为家I

    0

    主题

    337

    回帖

    1730

    积分

    金牌会员

    Rank: 6Rank: 6

    积分
    1730
    发表于 2020-8-9 12:08:37 | 显示全部楼层
    回复 支持 反对

    使用道具 举报

  • TA的每日心情

    2022-5-13 19:39
  • 签到天数: 18 天

    [LV.4]偶尔看看III

    0

    主题

    25

    回帖

    118

    积分

    注册会员

    Rank: 2

    积分
    118
    发表于 2020-10-21 20:12:43 | 显示全部楼层
    回复 支持 反对

    使用道具 举报

    懒得打字嘛,点击右侧快捷回复 【右侧内容,后台自定义】
    您需要登录后才可以回帖 登录 | 立即注册

    本版积分规则

    郑重声明,本站所有作品片源来自互联网公开渠道,均为网友上传交流学习,影视版权均归原电影公司所有,如有侵犯版权,请与 2322694662@qq.com 联系,我们将立即删除。

    小黑屋|手机版|Archiver|百度统计|投诉|蓝光电影下载

    GMT+8, 2023-2-9 06:40 , Processed in 0.125098 second(s), 18 queries , Gzip On, MemCached On.

    Powered by Discuz! X3.4

    © 2001-2013 Comsenz Inc.

    快速回复 返回顶部 返回列表