快捷导航
查看: 7588|回复: 26

[剧情] 空天猎 Sky.Hunter.2017.720p.BluRay.x264-REGRET 4.38GB

[复制链接]
  • TA的每日心情
    开心
    2023-1-15 19:47
  • 签到天数: 258 天

    [LV.8]以坛为家I

    1万

    主题

    668

    回帖

    17万

    积分

    管理员

    蓝光君

    Rank: 9Rank: 9Rank: 9

    积分
    173304

    活跃会员热心会员推广达人突出贡献优秀版主荣誉管理论坛元老

    QQ
    发表于 2020-6-7 16:08:24 | 显示全部楼层 |阅读模式



    空天猎 Sky.Hunter.2017.720p.BluRay.x264-REGRET 4.38GB-1.png


    译  名 Sky Hunter / 霸天狼
    片  名 空天猎
    年  代 2017
    产  地 中国大陆
    类  别 剧情 / 动作 / 战争
    语  言 汉语普通话
    上映日期 2017-09-29(中国大陆)
    IMDb评分  7.0/10 from 1086 users
    IMDb链接  https://www.imdb.com/title/tt6908536
    豆瓣评分 5.0/10 from 57321 users
    豆瓣链接 https://movie.douban.com/subject/26753020/
    片  长 115分钟
    导  演 李晨 Chen Li
    编  剧 李晨 Chen Li / 张力 Li Zhang / 刘毅 Yi Liu / 高岩 Yan Gao / 褚翔宇 Xiangyu Zhu
    主  演 李晨 Chen Li
           范冰冰 Bingbing Fan
           王千源 Qianyuan Wang
           李佳航 Jiahang Li
           赵达 Da Zhao
           李晨浩 Leon Lee
           郭洺宇 Mingyu Guo
           叶浏 Liu Ye
           陆思宇 Siyu Lu
           托马尔·奥兹 Tomer Oz
           吴秀波 Xiubo Wu
           邓超 Chao Deng
           王学圻 Xueqi Wang


    标  签 空战 | 中国空军 | 军事 | 国产 | 战争 | 2017 | 中国大陆 | 动作

    简  介  

      一场空天战场的猎杀传奇。霸天狼,一支神秘的空军顶级团队,每一名飞行员都是“金头盔” 级别的王牌飞行员,吴迪(李晨 饰)、亚莉(范冰冰 饰)、巴图(郭洺宇 饰)、高原(李晨浩 饰)通过层层考核,成为了霸天狼秘密基地的一员。可谁也没有想到,吴迪的好友浩辰(李佳航 饰)却在任务中陷入一场境外战乱的阴谋。更大的威胁接踵而至,恐怖势力突 发其来的导弹危机和人质危机,空前地挑战着中国空军的实战能力!十万火急之下,最新式 的中国战机和最顶级的飞行员,与掌握导弹密码和先进战机的敌人,在境外天空展开一场生死对决......

    获奖情况  

      第25届北京大学生电影节(2018)
      最受大学生欢迎导演 李晨
    1. Video
    2. ID                                       : 1
    3. Format                                   : AVC
    4. Format/Info                              : Advanced Video Codec
    5. Format profile                           : High@L4
    6. Format settings                          : CABAC / 5 Ref Frames
    7. Format settings, CABAC                   : Yes
    8. Format settings, Reference frames        : 5 frames
    9. Codec ID                                 : V_MPEG4/ISO/AVC
    10. Duration                                 : 1 h 55 min
    11. Bit rate                                 : 4 796 kb/s
    12. Width                                    : 1 280 pixels
    13. Height                                   : 536 pixels
    14. Display aspect ratio                     : 2.40:1
    15. Frame rate mode                          : Constant
    16. Frame rate                               : 24.000 FPS
    17. Color space                              : YUV
    18. Chroma subsampling                       : 4:2:0
    19. Bit depth                                : 8 bits
    20. Scan type                                : Progressive
    21. Bits/(Pixel*Frame)                       : 0.291
    22. Stream size                              : 3.86 GiB (88%)
    23. Writing library                          : x264 core 159 r2991 1771b55
    24. Encoding settings                        : cabac=1 / ref=5 / deblock=1:-3:-3 / analyse=0x3:0x133 / me=umh / subme=9 / psy=1 / psy_rd=1.00:0.00 / mixed_ref=1 / me_range=16 / chroma_me=1 / trellis=2 / 8x8dct=1 / cqm=0 / deadzone=21,11 / fast_pskip=0 / chroma_qp_offset=-2 / threads=17 / lookahead_threads=1 / sliced_threads=0 / nr=0 / decimate=1 / interlaced=0 / bluray_compat=0 / constrained_intra=0 / bframes=3 / b_pyramid=2 / b_adapt=1 / b_bias=0 / direct=3 / weightb=1 / open_gop=0 / weightp=2 / keyint=240 / keyint_min=24 / scenecut=40 / intra_refresh=0 / rc_lookahead=50 / rc=2pass / mbtree=1 / bitrate=4796 / ratetol=1.0 / qcomp=0.60 / qpmin=0 / qpmax=69 / qpstep=4 / cplxblur=20.0 / qblur=0.5 / ip_ratio=1.40 / aq=1:1.00
    25. Language                                 : English
    26. Default                                  : Yes
    27. Forced                                   : No

    28. Audio
    29. ID                                       : 2
    30. Format                                   : AC-3
    31. Format/Info                              : Audio Coding 3
    32. Commercial name                          : Dolby Digital
    33. Codec ID                                 : A_AC3
    34. Duration                                 : 1 h 55 min
    35. Bit rate mode                            : Constant
    36. Bit rate                                 : 640 kb/s
    37. Channel(s)                               : 6 channels
    38. Channel layout                           : L R C LFE Ls Rs
    39. Sampling rate                            : 48.0 kHz
    40. Frame rate                               : 31.250 FPS (1536 SPF)
    41. Bit depth                                : 16 bits
    42. Compression mode                         : Lossy
    43. Stream size                              : 527 MiB (12%)
    44. Language                                 : Chinese
    45. Service kind                             : Complete Main
    46. Default                                  : Yes
    47. Forced                                   : No

    48. Text
    49. ID                                       : 3
    50. Format                                   : UTF-8
    51. Codec ID                                 : S_TEXT/UTF8
    52. Codec ID/Info                            : UTF-8 Plain Text
    53. Duration                                 : 1 h 43 min
    54. Bit rate                                 : 45 b/s
    55. Count of elements                        : 1262
    56. Stream size                              : 34.4 KiB (0%)
    57. Title                                    : English Forced
    58. Language                                 : English
    59. Default                                  : Yes
    60. Forced                                   : Yes

    61. Menu
    62. 00:00:00.000                             : en:00:00:00.000
    63. 00:06:12.750                             : en:00:06:12.750
    64. 00:11:53.458                             : en:00:11:53.458
    65. 00:16:20.458                             : en:00:16:20.458
    66. 00:21:21.833                             : en:00:21:21.833
    67. 00:26:30.875                             : en:00:26:30.875
    68. 00:33:06.625                             : en:00:33:06.625
    69. 00:37:34.000                             : en:00:37:34.000
    70. 00:43:19.125                             : en:00:43:19.125
    71. 00:50:11.208                             : en:00:50:11.208
    72. 00:57:22.625                             : en:00:57:22.625
    73. 01:01:42.125                             : en:01:01:42.125
    74. 01:06:19.250                             : en:01:06:19.250
    75. 01:11:45.750                             : en:01:11:45.750
    76. 01:17:08.083                             : en:01:17:08.083
    77. 01:22:43.375                             : en:01:22:43.375
    78. 01:26:37.167                             : en:01:26:37.167
    79. 01:34:41.500                             : en:01:34:41.500
    80. 01:40:40.500                             : en:01:40:40.500
    81. 01:46:36.000                             : en:01:46:36.000
    复制代码

    空天猎 Sky.Hunter.2017.720p.BluRay.x264-REGRET 4.38GB-2.png

    游客,如果您要查看本帖隐藏内容请回复




    找个高清片 欣赏欣赏 休息休息.....
    回复

    使用道具 举报

    该用户从未签到

    0

    主题

    669

    回帖

    605

    积分

    高级会员

    Rank: 4

    积分
    605
    发表于 2020-6-8 08:04:59 | 显示全部楼层
    楼主太厉害了!楼主,电影应该很好看我觉得蓝光电影下载真是个好地方!
    回复 支持 反对

    使用道具 举报

    该用户从未签到

    0

    主题

    631

    回帖

    516

    积分

    高级会员

    Rank: 4

    积分
    516
    发表于 2020-6-8 18:28:33 | 显示全部楼层
    感谢楼主的无私分享!要想蓝光高清电影网好 就靠你我他
    回复 支持 反对

    使用道具 举报

    该用户从未签到

    0

    主题

    1518

    回帖

    1406

    积分

    金牌会员

    Rank: 6Rank: 6

    积分
    1406
    发表于 2020-6-18 23:10:33 | 显示全部楼层

    是个好电影!必须要看的!多谢分享!
    回复 支持 反对

    使用道具 举报

  • TA的每日心情
    开心
    2021-12-4 09:10
  • 签到天数: 384 天

    [LV.9]以坛为家II

    0

    主题

    760

    回帖

    3450

    积分

    论坛元老

    Rank: 8Rank: 8

    积分
    3450
    发表于 2020-7-18 08:46:16 | 显示全部楼层
    回复 支持 反对

    使用道具 举报

    该用户从未签到

    0

    主题

    2

    回帖

    8

    积分

    新手上路

    Rank: 1

    积分
    8
    发表于 2020-8-2 18:29:49 | 显示全部楼层
    回复 支持 反对

    使用道具 举报

  • TA的每日心情
    擦汗
    4 天前
  • 签到天数: 295 天

    [LV.8]以坛为家I

    0

    主题

    337

    回帖

    1730

    积分

    金牌会员

    Rank: 6Rank: 6

    积分
    1730
    发表于 2020-8-9 11:47:57 | 显示全部楼层
    回复 支持 反对

    使用道具 举报

  • TA的每日心情
    擦汗
    4 天前
  • 签到天数: 295 天

    [LV.8]以坛为家I

    0

    主题

    337

    回帖

    1730

    积分

    金牌会员

    Rank: 6Rank: 6

    积分
    1730
    发表于 2020-8-20 18:27:42 来自手机 | 显示全部楼层
    回复 支持 反对

    使用道具 举报

    该用户从未签到

    0

    主题

    3

    回帖

    10

    积分

    新手上路

    Rank: 1

    积分
    10
    发表于 2020-12-3 23:06:39 | 显示全部楼层
    谢谢谢谢谢谢谢谢谢谢谢谢谢谢谢谢谢谢谢谢谢谢谢谢谢谢谢谢谢谢谢谢
    回复 支持 反对

    使用道具 举报

    该用户从未签到

    0

    主题

    1

    回帖

    4

    积分

    新手上路

    Rank: 1

    积分
    4
    发表于 2021-3-24 15:29:56 | 显示全部楼层
    回复 支持 反对

    使用道具 举报

    懒得打字嘛,点击右侧快捷回复 【右侧内容,后台自定义】
    您需要登录后才可以回帖 登录 | 立即注册

    本版积分规则

    郑重声明,本站所有作品片源来自互联网公开渠道,均为网友上传交流学习,影视版权均归原电影公司所有,如有侵犯版权,请与 2322694662@qq.com 联系,我们将立即删除。

    小黑屋|手机版|Archiver|百度统计|投诉|蓝光电影下载

    GMT+8, 2023-2-9 06:49 , Processed in 0.130761 second(s), 29 queries , Gzip On, MemCached On.

    Powered by Discuz! X3.4

    © 2001-2013 Comsenz Inc.

    快速回复 返回顶部 返回列表