快捷导航
查看: 5793|回复: 30

[恐怖] 送葬者 The.Undertaker.1988.THEATRICAL.720p.BluRay.x264-CREEPSHOW 4.36GB

[复制链接]
  • TA的每日心情
    开心
    2023-1-15 19:47
  • 签到天数: 258 天

    [LV.8]以坛为家I

    1万

    主题

    668

    回帖

    17万

    积分

    管理员

    蓝光君

    Rank: 9Rank: 9Rank: 9

    积分
    173304

    活跃会员热心会员推广达人突出贡献优秀版主荣誉管理论坛元老

    QQ
    发表于 2020-6-7 16:19:01 | 显示全部楼层 |阅读模式



    送葬者 The.Undertaker.1988.THEATRICAL.720p.BluRay.x264-CREEPSHOW 4.36GB-1.png


    译  名 送葬者
    片  名 The Undertaker
    年  代 1988
    产  地 美国
    类  别 恐怖
    语  言 英语
    上映日期 1988
    IMDb评分  5.0/10 from 270 users
    IMDb链接  https://www.imdb.com/title/tt0249218
    豆瓣评分 0/10 from 0 users
    豆瓣链接 https://movie.douban.com/subject/5142963/
    导  演 Franco Steffanino
    编  剧 William James Kennedy

    标  签 记号 | 美国电影 | 恐怖 | BDISO | 1988

    简  介  

      暂无相关剧情介绍
    1. Video
    2. ID                                       : 1
    3. Format                                   : AVC
    4. Format/Info                              : Advanced Video Codec
    5. Format profile                           : High@L4
    6. Format settings                          : CABAC / 5 Ref Frames
    7. Format settings, CABAC                   : Yes
    8. Format settings, Reference frames        : 5 frames
    9. Codec ID                                 : V_MPEG4/ISO/AVC
    10. Duration                                 : 1 h 21 min
    11. Bit rate                                 : 6 860 kb/s
    12. Width                                    : 1 280 pixels
    13. Height                                   : 720 pixels
    14. Display aspect ratio                     : 16:9
    15. Frame rate mode                          : Constant
    16. Frame rate                               : 23.976 (24000/1001) FPS
    17. Color space                              : YUV
    18. Chroma subsampling                       : 4:2:0
    19. Bit depth                                : 8 bits
    20. Scan type                                : Progressive
    21. Bits/(Pixel*Frame)                       : 0.310
    22. Stream size                              : 3.89 GiB (89%)
    23. Writing library                          : x264 core 157 r2969 d4099dd
    24. Encoding settings                        : cabac=1 / ref=5 / deblock=1:-2:-2 / analyse=0x3:0x133 / me=umh / subme=9 / psy=1 / psy_rd=1.00:0.00 / mixed_ref=1 / me_range=16 / chroma_me=1 / trellis=2 / 8x8dct=1 / cqm=0 / deadzone=21,11 / fast_pskip=0 / chroma_qp_offset=-2 / threads=12 / lookahead_threads=1 / sliced_threads=0 / nr=0 / decimate=1 / interlaced=0 / bluray_compat=0 / constrained_intra=0 / bframes=3 / b_pyramid=2 / b_adapt=2 / b_bias=0 / direct=3 / weightb=1 / open_gop=0 / weightp=2 / keyint=240 / keyint_min=23 / scenecut=40 / intra_refresh=0 / rc_lookahead=50 / rc=2pass / mbtree=1 / bitrate=6860 / ratetol=1.0 / qcomp=0.60 / qpmin=0 / qpmax=69 / qpstep=4 / cplxblur=20.0 / qblur=0.5 / vbv_maxrate=62500 / vbv_bufsize=78125 / nal_hrd=none / filler=0 / ip_ratio=1.40 / aq=1:0.70
    25. Default                                  : Yes
    26. Forced                                   : No

    27. Audio
    28. ID                                       : 2
    29. Format                                   : FLAC
    30. Format/Info                              : Free Lossless Audio Codec
    31. Codec ID                                 : A_FLAC
    32. Duration                                 : 1 h 21 min
    33. Bit rate mode                            : Variable
    34. Bit rate                                 : 839 kb/s
    35. Channel(s)                               : 2 channels
    36. Channel layout                           : L R
    37. Sampling rate                            : 48.0 kHz
    38. Frame rate                               : 11.719 FPS (4096 SPF)
    39. Bit depth                                : 24 bits
    40. Compression mode                         : Lossless
    41. Stream size                              : 487 MiB (11%)
    42. Writing library                          : libFLAC 1.3.2 (UTC 2017-01-01)
    43. Language                                 : English
    44. Default                                  : Yes
    45. Forced                                   : No

    46. Text
    47. ID                                       : 3
    48. Format                                   : UTF-8
    49. Codec ID                                 : S_TEXT/UTF8
    50. Codec ID/Info                            : UTF-8 Plain Text
    51. Duration                                 : 1 h 18 min
    52. Bit rate                                 : 46 b/s
    53. Count of elements                        : 934
    54. Stream size                              : 26.4 KiB (0%)
    55. Language                                 : English
    56. Default                                  : No
    57. Forced                                   : No

    58. Menu
    59. 00:00:00.000                             : en:Chapter 01
    60. 00:06:41.026                             : en:Chapter 02
    61. 00:13:34.063                             : en:Chapter 03
    62. 00:20:47.037                             : en:Chapter 04
    63. 00:24:50.698                             : en:Chapter 05
    64. 00:33:00.103                             : en:Chapter 06
    65. 00:41:35.910                             : en:Chapter 07
    66. 00:49:30.092                             : en:Chapter 08
    67. 00:55:12.810                             : en:Chapter 09
    68. 01:01:58.048                             : en:Chapter 10
    69. 01:08:26.978                             : en:Chapter 11
    70. 01:13:22.273                             : en:Chapter 12
    复制代码

    送葬者 The.Undertaker.1988.THEATRICAL.720p.BluRay.x264-CREEPSHOW 4.36GB-2.png

    游客,如果您要查看本帖隐藏内容请回复




    找个高清片 欣赏欣赏 休息休息.....
    回复

    使用道具 举报

    该用户从未签到

    0

    主题

    1417

    回帖

    1285

    积分

    金牌会员

    Rank: 6Rank: 6

    积分
    1285
    发表于 2020-6-7 16:27:12 | 显示全部楼层
    回复 支持 反对

    使用道具 举报

    该用户从未签到

    0

    主题

    1184

    回帖

    1080

    积分

    金牌会员

    Rank: 6Rank: 6

    积分
    1080
    发表于 2020-6-7 18:07:42 | 显示全部楼层
    回复 支持 反对

    使用道具 举报

    该用户从未签到

    0

    主题

    3953

    回帖

    3584

    积分

    论坛元老

    Rank: 8Rank: 8

    积分
    3584
    发表于 2020-6-7 18:44:17 | 显示全部楼层
    回复 支持 反对

    使用道具 举报

    该用户从未签到

    0

    主题

    1657

    回帖

    1521

    积分

    金牌会员

    Rank: 6Rank: 6

    积分
    1521
    发表于 2020-6-8 00:09:23 | 显示全部楼层

    是个好电影!必须要看的!多谢分享!
    回复 支持 反对

    使用道具 举报

    该用户从未签到

    0

    主题

    5008

    回帖

    4516

    积分

    论坛元老

    Rank: 8Rank: 8

    积分
    4516
    发表于 2020-6-8 10:58:52 | 显示全部楼层
    回复 支持 反对

    使用道具 举报

  • TA的每日心情
    慵懒
    2022-9-15 21:40
  • 签到天数: 1 天

    [LV.1]初来乍到

    0

    主题

    2万

    回帖

    2万

    积分

    论坛元老

    Rank: 8Rank: 8

    积分
    21476
    发表于 2020-6-9 21:54:36 | 显示全部楼层
    回复 支持 反对

    使用道具 举报

    该用户从未签到

    0

    主题

    8084

    回帖

    7843

    积分

    论坛元老

    Rank: 8Rank: 8

    积分
    7843
    发表于 2020-6-9 23:57:59 | 显示全部楼层
    回复 支持 反对

    使用道具 举报

  • TA的每日心情
    无聊
    2022-11-7 13:33
  • 签到天数: 1 天

    [LV.1]初来乍到

    0

    主题

    7670

    回帖

    6326

    积分

    论坛元老

    Rank: 8Rank: 8

    积分
    6326
    发表于 2020-6-10 05:39:42 | 显示全部楼层
    这个帖子不回对不起自己!我想我是一天也不能离开蓝光电影网
    回复 支持 反对

    使用道具 举报

  • TA的每日心情
    奋斗
    2022-5-17 04:04
  • 签到天数: 1 天

    [LV.1]初来乍到

    0

    主题

    5327

    回帖

    4778

    积分

    论坛元老

    Rank: 8Rank: 8

    积分
    4778
    发表于 2020-6-25 09:02:43 | 显示全部楼层
    楼主太厉害了!楼主,电影应该很好看我觉得蓝光电影下载真是个好地方!
    回复 支持 反对

    使用道具 举报

    懒得打字嘛,点击右侧快捷回复 【右侧内容,后台自定义】
    您需要登录后才可以回帖 登录 | 立即注册

    本版积分规则

    郑重声明,本站所有作品片源来自互联网公开渠道,均为网友上传交流学习,影视版权均归原电影公司所有,如有侵犯版权,请与 2322694662@qq.com 联系,我们将立即删除。

    小黑屋|手机版|Archiver|百度统计|投诉|蓝光电影下载

    GMT+8, 2023-2-9 07:23 , Processed in 0.125927 second(s), 19 queries , Gzip On, MemCached On.

    Powered by Discuz! X3.4

    © 2001-2013 Comsenz Inc.

    快速回复 返回顶部 返回列表