快捷导航
查看: 5228|回复: 33

[动作] 扰乱治安 Disturbing.the.Peace.2020.720p.BluRay.x264-YOL0W 4.36GB

[复制链接]
  • TA的每日心情
    开心
    2023-1-15 19:47
  • 签到天数: 258 天

    [LV.8]以坛为家I

    1万

    主题

    668

    回帖

    17万

    积分

    管理员

    蓝光君

    Rank: 9Rank: 9Rank: 9

    积分
    173304

    活跃会员热心会员推广达人突出贡献优秀版主荣誉管理论坛元老

    QQ
    发表于 2020-6-7 17:04:54 | 显示全部楼层 |阅读模式



    扰乱治安 Disturbing.the.Peace.2020.720p.BluRay.x264-YOL0W 4.36GB-1.png


    译  名 扰乱治安 / Gunfighter
    片  名 Disturbing the Peace
    年  代 2020
    产  地 美国
    类  别 动作
    语  言 英语
    上映日期 2020-01-17(美国)
    IMDb评分  3.0/10 from 408 users
    IMDb链接  https://www.imdb.com/title/tt5717194
    豆瓣评分 0/10 from 0 users
    豆瓣链接 https://movie.douban.com/subject/30219798/
    导  演 纽科·萨克里顿 York Shackleton
    编  剧 Chuck Hustmyre
    主  演 盖·皮尔斯 Guy Pearce
           凯莉·格蕾森 Kelly Greyson


    标  签 美国 | 动作 | 2020 | 美国电影 | 盖·皮尔斯 | 犯罪 | 烂片 | 演员傻子,编剧脑残

    简  介  

      盖·皮尔斯出演动作惊悚片[扰乱治安](Disturbing The Peace,暂译),凯莉·格蕾森加盟。导演纽科·萨克里顿([代码211]) ,编剧查克·哈斯梅尔([终结武器])。故事讲述一个前德州骑警为保护小镇与摩托党展开厮杀。Voltage Pictures负责发行。影片今夏阿拉巴马开机,将在本届戛纳电影节预售。
    1. Video
    2. ID                                       : 1
    3. Format                                   : AVC
    4. Format/Info                              : Advanced Video Codec
    5. Format profile                           : High@L4
    6. Format settings                          : CABAC / 8 Ref Frames
    7. Format settings, CABAC                   : Yes
    8. Format settings, Reference frames        : 8 frames
    9. Codec ID                                 : V_MPEG4/ISO/AVC
    10. Duration                                 : 1 h 30 min
    11. Bit rate                                 : 5 369 kb/s
    12. Width                                    : 1 280 pixels
    13. Height                                   : 640 pixels
    14. Display aspect ratio                     : 2.000
    15. Frame rate mode                          : Constant
    16. Frame rate                               : 23.976 (24000/1001) FPS
    17. Color space                              : YUV
    18. Chroma subsampling                       : 4:2:0
    19. Bit depth                                : 8 bits
    20. Scan type                                : Progressive
    21. Bits/(Pixel*Frame)                       : 0.273
    22. Stream size                              : 3.40 GiB (78%)
    23. Writing library                          : x264 core 159 r2991 1771b55
    24. Encoding settings                        : cabac=1 / ref=8 / deblock=1:-3:-3 / analyse=0x3:0x133 / me=umh / subme=7 / psy=1 / psy_rd=1.00:0.00 / mixed_ref=1 / me_range=16 / chroma_me=1 / trellis=2 / 8x8dct=1 / cqm=0 / deadzone=21,11 / fast_pskip=1 / chroma_qp_offset=-2 / threads=16 / lookahead_threads=2 / sliced_threads=0 / nr=0 / decimate=1 / interlaced=0 / bluray_compat=0 / constrained_intra=0 / bframes=3 / b_pyramid=2 / b_adapt=2 / b_bias=0 / direct=3 / weightb=1 / open_gop=0 / weightp=2 / keyint=250 / keyint_min=23 / scenecut=40 / intra_refresh=0 / rc_lookahead=50 / rc=2pass / mbtree=1 / bitrate=5369 / ratetol=1.0 / qcomp=0.60 / qpmin=0 / qpmax=69 / qpstep=4 / cplxblur=20.0 / qblur=0.5 / ip_ratio=1.40 / aq=1:1.00
    25. Language                                 : English
    26. Default                                  : Yes
    27. Forced                                   : No
    28. Color range                              : Limited
    29. Matrix coefficients                      : BT.709

    30. Audio
    31. ID                                       : 2
    32. Format                                   : DTS
    33. Format/Info                              : Digital Theater Systems
    34. Codec ID                                 : A_DTS
    35. Duration                                 : 1 h 30 min
    36. Bit rate mode                            : Constant
    37. Bit rate                                 : 1 509 kb/s
    38. Channel(s)                               : 6 channels
    39. Channel layout                           : C L R Ls Rs LFE
    40. Sampling rate                            : 48.0 kHz
    41. Frame rate                               : 93.750 FPS (512 SPF)
    42. Bit depth                                : 24 bits
    43. Compression mode                         : Lossy
    44. Stream size                              : 981 MiB (22%)
    45. Title                                    : English
    46. Language                                 : English
    47. Default                                  : Yes
    48. Forced                                   : No

    49. Menu
    50. 00:00:00.000                             : en:Chapter 01
    51. 00:03:15.404                             : en:Chapter 02
    52. 00:07:39.876                             : en:Chapter 03
    53. 00:14:50.765                             : en:Chapter 04
    54. 00:21:53.270                             : en:Chapter 05
    55. 00:27:00.160                             : en:Chapter 06
    56. 00:31:14.956                             : en:Chapter 07
    57. 00:36:45.120                             : en:Chapter 08
    58. 00:40:24.130                             : en:Chapter 09
    59. 00:46:09.058                             : en:Chapter 10
    60. 00:54:15.002                             : en:Chapter 11
    61. 01:00:43.557                             : en:Chapter 12
    62. 01:05:21.835                             : en:Chapter 13
    63. 01:13:20.605                             : en:Chapter 14
    64. 01:20:51.805                             : en:Chapter 15
    65. 01:22:27.943                             : en:Chapter 16
    复制代码

    扰乱治安 Disturbing.the.Peace.2020.720p.BluRay.x264-YOL0W 4.36GB-2.png

    游客,如果您要查看本帖隐藏内容请回复




    找个高清片 欣赏欣赏 休息休息.....
    回复

    使用道具 举报

    该用户从未签到

    0

    主题

    1256

    回帖

    1144

    积分

    金牌会员

    Rank: 6Rank: 6

    积分
    1144
    发表于 2020-6-7 17:05:07 | 显示全部楼层
    回复 支持 反对

    使用道具 举报

  • TA的每日心情
    慵懒
    2022-9-15 21:40
  • 签到天数: 1 天

    [LV.1]初来乍到

    0

    主题

    2万

    回帖

    2万

    积分

    论坛元老

    Rank: 8Rank: 8

    积分
    21476
    发表于 2020-6-8 19:24:11 | 显示全部楼层
    回复 支持 反对

    使用道具 举报

  • TA的每日心情
    慵懒
    2022-9-15 21:40
  • 签到天数: 1 天

    [LV.1]初来乍到

    0

    主题

    2万

    回帖

    2万

    积分

    论坛元老

    Rank: 8Rank: 8

    积分
    21476
    发表于 2020-6-12 22:48:07 | 显示全部楼层
    回复 支持 反对

    使用道具 举报

    该用户从未签到

    0

    主题

    1295

    回帖

    1147

    积分

    金牌会员

    Rank: 6Rank: 6

    积分
    1147
    发表于 2020-6-16 23:30:40 | 显示全部楼层

    是个好电影!必须要看的!多谢分享!
    回复 支持 反对

    使用道具 举报

  • TA的每日心情
    无聊
    2022-11-7 13:33
  • 签到天数: 1 天

    [LV.1]初来乍到

    0

    主题

    7670

    回帖

    6326

    积分

    论坛元老

    Rank: 8Rank: 8

    积分
    6326
    发表于 2020-6-30 06:03:00 | 显示全部楼层
    回复 支持 反对

    使用道具 举报

  • TA的每日心情
    无聊
    2022-11-7 13:33
  • 签到天数: 1 天

    [LV.1]初来乍到

    0

    主题

    7670

    回帖

    6326

    积分

    论坛元老

    Rank: 8Rank: 8

    积分
    6326
    发表于 2020-7-4 00:28:13 | 显示全部楼层
    楼主太厉害了!楼主,电影应该很好看我觉得蓝光电影下载真是个好地方!
    回复 支持 反对

    使用道具 举报

  • TA的每日心情
    无聊
    2022-11-7 13:33
  • 签到天数: 1 天

    [LV.1]初来乍到

    0

    主题

    7670

    回帖

    6326

    积分

    论坛元老

    Rank: 8Rank: 8

    积分
    6326
    发表于 2020-7-7 23:47:42 | 显示全部楼层
    回复 支持 反对

    使用道具 举报

  • TA的每日心情
    开心
    昨天 18:25
  • 签到天数: 811 天

    [LV.10]以坛为家III

    0

    主题

    880

    回帖

    5263

    积分

    论坛元老

    Rank: 8Rank: 8

    积分
    5263
    发表于 2020-8-25 18:43:05 | 显示全部楼层
    我觉得蓝光电影网真是个好地方!
    回复 支持 反对

    使用道具 举报

    该用户从未签到

    0

    主题

    2

    回帖

    8

    积分

    新手上路

    Rank: 1

    积分
    8
    发表于 2021-3-31 11:50:29 | 显示全部楼层
    非常感谢分享这么好的片子。
    回复 支持 反对

    使用道具 举报

    懒得打字嘛,点击右侧快捷回复 【右侧内容,后台自定义】
    您需要登录后才可以回帖 登录 | 立即注册

    本版积分规则

    郑重声明,本站所有作品片源来自互联网公开渠道,均为网友上传交流学习,影视版权均归原电影公司所有,如有侵犯版权,请与 2322694662@qq.com 联系,我们将立即删除。

    小黑屋|手机版|Archiver|百度统计|投诉|蓝光电影下载

    GMT+8, 2023-2-9 08:33 , Processed in 0.122418 second(s), 31 queries , Gzip On, MemCached On.

    Powered by Discuz! X3.4

    © 2001-2013 Comsenz Inc.

    快速回复 返回顶部 返回列表