快捷导航
查看: 6497|回复: 34

[惊悚] 斧刃 Edge.of.the.Axe.1988.720p.BluRay.x264-GHOULS 4.38GB

[复制链接]
  • TA的每日心情
    开心
    2023-1-15 19:47
  • 签到天数: 258 天

    [LV.8]以坛为家I

    1万

    主题

    668

    回帖

    17万

    积分

    管理员

    蓝光君

    Rank: 9Rank: 9Rank: 9

    积分
    173304

    活跃会员热心会员推广达人突出贡献优秀版主荣誉管理论坛元老

    QQ
    发表于 2020-6-7 17:07:19 | 显示全部楼层 |阅读模式

    斧刃 Edge.of.the.Axe.1988.720p.BluRay.x264-GHOULS 4.38GB-1.png


    译  名 斧刃 / Al filo del hacha
    片  名 Edge of the Axe
    年  代 1988
    产  地 西班牙 / 美国
    类  别 惊悚 / 恐怖
    语  言 英语
    上映日期 1988-05-20
    IMDb评分  5.4/10 from 429 users
    IMDb链接  https://www.imdb.com/title/tt0094627
    豆瓣评分 0/10 from 0 users
    豆瓣链接 https://movie.douban.com/subject/3347387/
    导  演 何塞·拉蒙·拉斯 José Ramón Larraz
    编  剧 Joaquín Amichatis / Javier Elorrieta / José Frade / 胡安·巴勃罗·德·圣地亚哥 Juan Pablo de Santiago
    主  演 Barton Faulks
           Christina Marie Lane
           Page Mosely


    标  签 恐怖 | 惊悚 | 悬疑 | 面具 | 杀人狂 | 妖妖舞 | 血腥 | 美国电影

    简  介  

      暂无相关剧情介绍
    1. Video
    2. ID                                       : 1
    3. Format                                   : AVC
    4. Format/Info                              : Advanced Video Codec
    5. Format profile                           : High@L4
    6. Format settings                          : CABAC / 9 Ref Frames
    7. Format settings, CABAC                   : Yes
    8. Format settings, Reference frames        : 9 frames
    9. Codec ID                                 : V_MPEG4/ISO/AVC
    10. Duration                                 : 1 h 31 min
    11. Bit rate                                 : 5 625 kb/s
    12. Width                                    : 1 280 pixels
    13. Height                                   : 688 pixels
    14. Display aspect ratio                     : 1.85:1
    15. Frame rate mode                          : Constant
    16. Frame rate                               : 23.976 (24000/1001) FPS
    17. Color space                              : YUV
    18. Chroma subsampling                       : 4:2:0
    19. Bit depth                                : 8 bits
    20. Scan type                                : Progressive
    21. Bits/(Pixel*Frame)                       : 0.266
    22. Stream size                              : 3.58 GiB (82%)
    23. Writing library                          : x264 core 159 r2991 1771b55
    24. Encoding settings                        : cabac=1 / ref=9 / deblock=1:-3:-3 / analyse=0x3:0x133 / me=umh / subme=9 / psy=1 / psy_rd=1.00:0.00 / mixed_ref=1 / me_range=24 / chroma_me=1 / trellis=1 / 8x8dct=1 / cqm=0 / deadzone=21,11 / fast_pskip=0 / chroma_qp_offset=-2 / threads=21 / lookahead_threads=3 / sliced_threads=0 / nr=0 / decimate=1 / interlaced=0 / bluray_compat=0 / constrained_intra=0 / bframes=8 / b_pyramid=2 / b_adapt=2 / b_bias=0 / direct=3 / weightb=1 / open_gop=0 / weightp=2 / keyint=250 / keyint_min=23 / scenecut=40 / intra_refresh=0 / rc_lookahead=60 / rc=2pass / mbtree=1 / bitrate=5625 / ratetol=1.0 / qcomp=0.60 / qpmin=0 / qpmax=69 / qpstep=4 / cplxblur=20.0 / qblur=0.5 / vbv_maxrate=62500 / vbv_bufsize=78125 / nal_hrd=none / filler=0 / ip_ratio=1.40 / aq=1:1.00
    25. Default                                  : Yes
    26. Forced                                   : No

    27. Audio #1
    28. ID                                       : 2
    29. Format                                   : FLAC
    30. Format/Info                              : Free Lossless Audio Codec
    31. Codec ID                                 : A_FLAC
    32. Duration                                 : 1 h 31 min
    33. Bit rate mode                            : Variable
    34. Bit rate                                 : 608 kb/s
    35. Channel(s)                               : 1 channel
    36. Channel layout                           : C
    37. Sampling rate                            : 48.0 kHz
    38. Frame rate                               : 10.417 FPS (4608 SPF)
    39. Bit depth                                : 24 bits
    40. Compression mode                         : Lossless
    41. Stream size                              : 396 MiB (9%)
    42. Writing library                          : Lavf58.29.100
    43. Language                                 : English
    44. Default                                  : No
    45. Forced                                   : No

    46. Audio #2
    47. ID                                       : 3
    48. Format                                   : FLAC
    49. Format/Info                              : Free Lossless Audio Codec
    50. Codec ID                                 : A_FLAC
    51. Duration                                 : 1 h 31 min
    52. Bit rate mode                            : Variable
    53. Bit rate                                 : 627 kb/s
    54. Channel(s)                               : 1 channel
    55. Channel layout                           : C
    56. Sampling rate                            : 48.0 kHz
    57. Frame rate                               : 10.417 FPS (4608 SPF)
    58. Bit depth                                : 24 bits
    59. Compression mode                         : Lossless
    60. Stream size                              : 409 MiB (9%)
    61. Writing library                          : Lavf58.29.100
    62. Language                                 : Spanish
    63. Default                                  : Yes
    64. Forced                                   : No

    65. Text
    66. ID                                       : 4
    67. Format                                   : UTF-8
    68. Codec ID                                 : S_TEXT/UTF8
    69. Codec ID/Info                            : UTF-8 Plain Text
    70. Duration                                 : 1 h 29 min
    71. Bit rate                                 : 39 b/s
    72. Count of elements                        : 825
    73. Stream size                              : 25.8 KiB (0%)
    74. Language                                 : English
    75. Default                                  : Yes
    76. Forced                                   : No

    77. Menu
    78. 00:00:00.000                             : en:Chapter 01
    79. 00:08:46.401                             : en:Chapter 02
    80. 00:15:53.160                             : en:Chapter 03
    81. 00:22:26.470                             : en:Chapter 04
    82. 00:30:55.479                             : en:Chapter 05
    83. 00:36:43.409                             : en:Chapter 06
    84. 00:44:51.564                             : en:Chapter 07
    85. 00:52:39.364                             : en:Chapter 08
    86. 00:58:04.523                             : en:Chapter 09
    87. 01:05:56.661                             : en:Chapter 10
    88. 01:12:07.949                             : en:Chapter 11
    89. 01:18:35.085                             : en:Chapter 12
    复制代码

    斧刃 Edge.of.the.Axe.1988.720p.BluRay.x264-GHOULS 4.38GB-2.png

    游客,如果您要查看本帖隐藏内容请回复




    找个高清片 欣赏欣赏 休息休息.....
    回复

    使用道具 举报

    该用户从未签到

    0

    主题

    3953

    回帖

    3584

    积分

    论坛元老

    Rank: 8Rank: 8

    积分
    3584
    发表于 2020-6-7 17:07:32 | 显示全部楼层

    是个好电影!必须要看的!多谢分享!
    回复 支持 反对

    使用道具 举报

  • TA的每日心情
    无聊
    2022-11-7 13:33
  • 签到天数: 1 天

    [LV.1]初来乍到

    0

    主题

    7670

    回帖

    6326

    积分

    论坛元老

    Rank: 8Rank: 8

    积分
    6326
    发表于 2020-6-8 19:28:10 | 显示全部楼层
    回复 支持 反对

    使用道具 举报

  • TA的每日心情
    无聊
    2022-11-7 13:33
  • 签到天数: 1 天

    [LV.1]初来乍到

    0

    主题

    7670

    回帖

    6326

    积分

    论坛元老

    Rank: 8Rank: 8

    积分
    6326
    发表于 2020-6-10 01:32:26 | 显示全部楼层
    回复 支持 反对

    使用道具 举报

    该用户从未签到

    0

    主题

    1248

    回帖

    1146

    积分

    金牌会员

    Rank: 6Rank: 6

    积分
    1146
    发表于 2020-6-19 22:01:49 | 显示全部楼层
    感谢楼主的无私分享!要想蓝光高清电影网好 就靠你我他
    回复 支持 反对

    使用道具 举报

    该用户从未签到

    0

    主题

    1295

    回帖

    1147

    积分

    金牌会员

    Rank: 6Rank: 6

    积分
    1147
    发表于 2020-6-28 04:07:54 | 显示全部楼层
    回复 支持 反对

    使用道具 举报

  • TA的每日心情

    2020-9-10 11:20
  • 签到天数: 5 天

    [LV.2]偶尔看看I

    0

    主题

    12

    回帖

    48

    积分

    新手上路

    Rank: 1

    积分
    48
    发表于 2020-7-18 21:40:56 | 显示全部楼层
    回复 支持 反对

    使用道具 举报

    该用户从未签到

    0

    主题

    1962

    回帖

    1797

    积分

    金牌会员

    Rank: 6Rank: 6

    积分
    1797
    发表于 2020-7-19 09:20:09 | 显示全部楼层
    回复 支持 反对

    使用道具 举报

  • TA的每日心情
    开心
    2021-12-4 09:10
  • 签到天数: 384 天

    [LV.9]以坛为家II

    0

    主题

    760

    回帖

    3450

    积分

    论坛元老

    Rank: 8Rank: 8

    积分
    3450
    发表于 2020-10-16 15:25:52 | 显示全部楼层

    楼主太厉害了!楼主,I*老*虎*U!我觉得蓝光电影网真是个好地方!
    回复 支持 反对

    使用道具 举报

  • TA的每日心情
    开心
    2020-11-11 18:51
  • 签到天数: 1 天

    [LV.1]初来乍到

    0

    主题

    6

    回帖

    14

    积分

    新手上路

    Rank: 1

    积分
    14
    发表于 2020-11-11 18:55:31 | 显示全部楼层
    回复 支持 反对

    使用道具 举报

    懒得打字嘛,点击右侧快捷回复 【右侧内容,后台自定义】
    您需要登录后才可以回帖 登录 | 立即注册

    本版积分规则

    郑重声明,本站所有作品片源来自互联网公开渠道,均为网友上传交流学习,影视版权均归原电影公司所有,如有侵犯版权,请与 2322694662@qq.com 联系,我们将立即删除。

    小黑屋|手机版|Archiver|百度统计|投诉|蓝光电影下载

    GMT+8, 2023-2-9 07:28 , Processed in 0.072266 second(s), 17 queries , Gzip On, MemCached On.

    Powered by Discuz! X3.4

    © 2001-2013 Comsenz Inc.

    快速回复 返回顶部 返回列表