快捷导航
查看: 395|回复: 3

活着 ALIVE.2020.1080p.FHDRip.H264.AAC-DHTCLUB 3.72 GB

[复制链接]
  • TA的每日心情
    奋斗
    3 天前
  • 签到天数: 61 天

    [LV.6]常住居民II

    14

    主题

    81

    帖子

    353

    积分

    中级会员

    Rank: 3Rank: 3

    积分
    353
    发表于 2020-9-26 20:36:47 | 显示全部楼层 |阅读模式
    本帖最后由 mbxhz 于 2020-9-26 20:38 编辑

    活着 ALIVE.2020.1080p.FHDRip.H264.AAC-DHTCLUB 3.72 GB

    1.jpg

    ◎译  名 #活着/#Alive/#Saraitda/Alone/얼론/独行
    ◎片  名 #살아있다
    ◎年  代 2020
    ◎产  地 韩国
    ◎类  别 动作 / 惊悚 / 灾难
    ◎语  言 韩语
    ◎上映日期 2020-06-24(韩国)
    ◎IMDb评分  6.2/10 from 14315 users
    ◎IMDb链接  https://www.imdb.com/title/tt10620868/
    ◎豆瓣评分 5.6/10 from 84061 users
    ◎豆瓣链接 https://movie.douban.com/subject/34462775/
    ◎片  长 98分钟
    ◎导  演 赵一亨 Il Cho
    ◎编  剧 赵一亨 Il Cho / 马特·奈勒 Matt Naylor
    ◎主  演 刘亚仁 Ah-in Yoo
           朴信惠 Shin-hye Park
           全裴修 Bae-soo Jeon
           李铉旭 Hyun-wook Lee
           苏熙静 So Hee-jung
           金丹菲 Dan-bi Kim

    ◎标  签 丧尸 | 灾难 | 韩国 | 韩国电影 | 朴信惠 | 刘亚仁 | 2020 | 剧情

    ◎简  介

      讲述突然被不明病毒感染,并失控扩散的城市中,被孤立的幸存者身上发生的故事。刘亚仁将在片中饰演因与世隔绝而幸存的游戏玩家俊宇一角,朴信惠饰演直面极端情况,寻找新的生存方式的幸存者宥彬一角。


    1. General
    2. Unique ID                      : 336618206279290766985739653033344130823 (0xFD3E4EEEB5AD29DB15F69B07C2085F07)
    3. Format                         : Matroska
    4. Format version                 : Version 4
    5. File size                      : 3.72 GiB
    6. Duration                       : 1 h 38 min
    7. Overall bit rate               : 5 431 kb/s
    8. Encoded date                   : UTC 2020-07-31 13:33:35
    9. Writing application            : mkvmerge v47.0.0 ('Black Flag') 64-bit
    10. Writing library                : libebml v1.3.10 + libmatroska v1.5.2

    11. Video
    12. ID                             : 1
    13. Format                         : AVC
    14. Format/Info                    : Advanced Video Codec
    15. Format profile                 : High@L4
    16. Format settings                : CABAC / 4 Ref Frames
    17. Format settings, CABAC         : Yes
    18. Format settings, Reference fra : 4 frames
    19. Format settings, GOP           : M=4, N=23
    20. Codec ID                       : V_MPEG4/ISO/AVC
    21. Duration                       : 1 h 38 min
    22. Bit rate                       : 5 120 kb/s
    23. Width                          : 1 920 pixels
    24. Height                         : 1 080 pixels
    25. Display aspect ratio           : 16:9
    26. Frame rate mode                : Constant
    27. Frame rate                     : 23.976 (24000/1001) FPS
    28. Color space                    : YUV
    29. Chroma subsampling             : 4:2:0
    30. Bit depth                      : 8 bits
    31. Scan type                      : Progressive
    32. Bits/(Pixel*Frame)             : 0.103
    33. Stream size                    : 3.50 GiB (94%)

    34. Audio
    35. ID                             : 2
    36. Format                         : AAC LC
    37. Format/Info                    : Advanced Audio Codec Low Complexity
    38. Codec ID                       : A_AAC-2
    39. Duration                       : 1 h 38 min
    40. Bit rate                       : 320 kb/s
    41. Channel(s)                     : 2 channels
    42. Channel layout                 : L R
    43. Sampling rate                  : 48.0 kHz
    44. Frame rate                     : 46.875 FPS (1024 SPF)
    45. Compression mode               : Lossy
    46. Stream size                    : 225 MiB (6%)
    47. Default                        : Yes
    48. Forced                         : No

    49. Text #1
    50. ID                             : 3
    51. Format                         : UTF-8
    52. Codec ID                       : S_TEXT/UTF8
    53. Codec ID/Info                  : UTF-8 Plain Text
    54. Duration                       : 1 h 30 min
    55. Bit rate                       : 12 b/s
    56. Count of elements              : 449
    57. Stream size                    : 8.25 KiB (0%)
    58. Title                          : CHS
    59. Language                       : Chinese
    60. Default                        : Yes
    61. Forced                         : No

    62. Text #2
    63. ID                             : 4
    64. Format                         : UTF-8
    65. Codec ID                       : S_TEXT/UTF8
    66. Codec ID/Info                  : UTF-8 Plain Text
    67. Duration                       : 1 h 30 min
    68. Bit rate                       : 12 b/s
    69. Count of elements              : 449
    70. Stream size                    : 8.25 KiB (0%)
    71. Title                          : CHT
    72. Language                       : Chinese
    73. Default                        : No
    74. Forced                         : No
    复制代码


    2.jpg

    活着.ALIVE.2020.1080p.FHDRip.H264.AAC-DHTCLUB 3.72 GB.zip (78.59 KB, 下载次数: 6)
    回复

    使用道具 举报

  • TA的每日心情
    无聊
    15 小时前
  • 签到天数: 110 天

    [LV.6]常住居民II

    0

    主题

    115

    帖子

    799

    积分

    高级会员

    Rank: 4

    积分
    799
    发表于 2021-5-13 01:12:14 | 显示全部楼层

    楼主太厉害了!楼主,I*老*虎*U!我觉得蓝光电影网真是个好地方!
    回复 支持 反对

    使用道具 举报

  • TA的每日心情
    无聊
    2021-6-28 16:06
  • 签到天数: 6 天

    [LV.2]偶尔看看I

    1

    主题

    40

    帖子

    119

    积分

    注册会员

    Rank: 2

    积分
    119
    发表于 2021-6-2 10:20:53 | 显示全部楼层
    我也来看看
    支持分享
    回复 支持 反对

    使用道具 举报

  • TA的每日心情
    开心
    2021-7-18 14:38
  • 签到天数: 1 天

    [LV.1]初来乍到

    1

    主题

    4

    帖子

    20

    积分

    新手上路

    Rank: 1

    积分
    20
    发表于 2021-7-18 14:41:29 | 显示全部楼层
    楼主发贴辛苦了,谢谢楼主分享!我觉得蓝光电影网是注册对了!
    回复 支持 反对

    使用道具 举报

    懒得打字嘛,点击右侧快捷回复 【右侧内容,后台自定义】
    您需要登录后才可以回帖 登录 | 立即注册

    本版积分规则

    郑重声明,本站所有作品片源来自互联网公开渠道,均为网友上传交流学习,影视版权均归原电影公司所有,如有侵犯版权,请与 2322694662@qq.com 联系,我们将立即删除。

    小黑屋|手机版|Archiver|百度统计|投诉|蓝光电影下载

    GMT+8, 2021-7-27 17:30 , Processed in 0.025166 second(s), 17 queries , Gzip On, MemCached On.

    Powered by Discuz! X3.4

    © 2001-2013 Comsenz Inc.

    快速回复 返回顶部 返回列表