快捷导航
查看: 5917|回复: 27

[剧情] 都市牛郎/油脂牛仔 Urban.Cowboy.1980.720p.BluRay.x264-GUACAMOLE 5.13GB

[复制链接]
  • TA的每日心情
    开心
    2023-1-15 19:47
  • 签到天数: 258 天

    [LV.8]以坛为家I

    1万

    主题

    668

    回帖

    17万

    积分

    管理员

    蓝光君

    Rank: 9Rank: 9Rank: 9

    积分
    173304

    活跃会员热心会员推广达人突出贡献优秀版主荣誉管理论坛元老

    QQ
    发表于 2021-2-12 14:23:42 | 显示全部楼层 |阅读模式
    1. 帖子完整标题:都市牛郎/油脂牛仔 Urban.Cowboy.1980.720p.BluRay.x264-GUACAMOLE 5.13GB
    复制代码
    都市牛郎/油脂牛仔 Urban.Cowboy.1980.720p.BluRay.x264-GUACAMOLE 5.13GB-1.jpeg


    译  名 都市牛郎 / 油脂牛仔
    片  名 Urban Cowboy
    年  代 1980
    产  地 美国
    类  别 剧情 / 西部
    语  言 英语
    上映日期 1981-05-14
    IMDb评分  6.3/10 from 12821 users
    IMDb链接  https://www.imdb.com/title/tt0081696
    豆瓣评分 7.4/10 from 91 users
    豆瓣链接 https://movie.douban.com/subject/1296831/
    片  长 132 分钟
    导  演 詹姆斯·布里奇斯 James Bridges
    编  剧 詹姆斯·布里奇斯 James Bridges / Aaron Latham
    主  演 约翰·特拉沃尔塔 John Travolta
           德博拉·温格 Debra Winger


    标  签 美国 | JohnTravolta | 美国电影 | 约翰屈伏塔 | 爱情 | 西部 | 剧情 | 1980

    简  介   

      Urban Cowboy is a 1980 American romantic drama film about the love-hate relationship between cowboy Bud Davis (John Travolta) and cowgirl Sissy (Debra Winger). The movie captured the late 1970s/early 1980s popularity of Country Music with John Travolta's starring after Grease and Saturday Night Fever.
    1. Video
    2. ID                                       : 1
    3. Format                                   : AVC
    4. Format/Info                              : Advanced Video Codec
    5. Format profile                           : High@L4
    6. Format settings                          : CABAC / 8 Ref Frames
    7. Format settings, CABAC                   : Yes
    8. Format settings, Reference frames        : 8 frames
    9. Codec ID                                 : V_MPEG4/ISO/AVC
    10. Duration                                 : 2 h 14 min
    11. Bit rate                                 : 4 774 kb/s
    12. Width                                    : 1 280 pixels
    13. Height                                   : 538 pixels
    14. Display aspect ratio                     : 2.40:1
    15. Frame rate mode                          : Constant
    16. Frame rate                               : 23.976 (24000/1001/189150) FPS
    17. Color space                              : YUV
    18. Chroma subsampling                       : 4:2:0
    19. Bit depth                                : 8 bits
    20. Scan type                                : Progressive
    21. Bits/(Pixel*Frame)                       : 0.289
    22. Stream size                              : 4.50 GiB (88%)
    23. Writing library                          : x264 core 161 r3018 db0d417
    24. Encoding settings                        : cabac=1 / ref=8 / deblock=1:-3:-3 / analyse=0x3:0x133 / me=umh / subme=9 / psy=1 / psy_rd=1.00:0.00 / mixed_ref=1 / me_range=16 / chroma_me=1 / trellis=2 / 8x8dct=1 / cqm=0 / deadzone=21,11 / fast_pskip=0 / chroma_qp_offset=-2 / threads=17 / lookahead_threads=1 / sliced_threads=0 / nr=0 / decimate=1 / interlaced=0 / bluray_compat=0 / constrained_intra=0 / bframes=3 / b_pyramid=2 / b_adapt=2 / b_bias=0 / direct=3 / weightb=1 / open_gop=0 / weightp=2 / keyint=250 / keyint_min=23 / scenecut=40 / intra_refresh=0 / rc_lookahead=60 / rc=crf / mbtree=1 / crf=17.0 / qcomp=0.60 / qpmin=0 / qpmax=69 / qpstep=4 / ip_ratio=1.40 / aq=3:0.70
    25. Default                                  : Yes
    26. Forced                                   : No
    27. Color range                              : Limited
    28. Color primaries                          : BT.709
    29. Transfer characteristics                 : BT.709
    30. Matrix coefficients                      : BT.709

    31. Audio
    32. ID                                       : 2
    33. Format                                   : AC-3
    34. Format/Info                              : Audio Coding 3
    35. Commercial name                          : Dolby Digital
    36. Codec ID                                 : A_AC3
    37. Duration                                 : 2 h 14 min
    38. Bit rate mode                            : Constant
    39. Bit rate                                 : 640 kb/s
    40. Channel(s)                               : 6 channels
    41. Channel layout                           : L R C LFE Ls Rs
    42. Sampling rate                            : 48.0 kHz
    43. Frame rate                               : 31.250 FPS (1536 SPF)
    44. Bit depth                                : 16 bits
    45. Compression mode                         : Lossy
    46. Stream size                              : 618 MiB (12%)
    47. Language                                 : English
    48. Service kind                             : Complete Main
    49. Default                                  : Yes
    50. Forced                                   : No

    51. Text #1
    52. ID                                       : 3
    53. Format                                   : PGS
    54. Muxing mode                              : zlib
    55. Codec ID                                 : S_HDMV/PGS
    56. Codec ID/Info                            : Picture based subtitle format used on BDs/HD-DVDs
    57. Duration                                 : 2 h 11 min
    58. Bit rate                                 : 26.4 kb/s
    59. Count of elements                        : 2150
    60. Stream size                              : 24.8 MiB (0%)
    61. Title                                    : SDH
    62. Language                                 : English
    63. Default                                  : No
    64. Forced                                   : No

    65. Text #2
    66. ID                                       : 4
    67. Format                                   : PGS
    68. Muxing mode                              : zlib
    69. Codec ID                                 : S_HDMV/PGS
    70. Codec ID/Info                            : Picture based subtitle format used on BDs/HD-DVDs
    71. Duration                                 : 2 h 11 min
    72. Bit rate                                 : 31.0 kb/s
    73. Count of elements                        : 2638
    74. Stream size                              : 29.2 MiB (1%)
    75. Title                                    : Full SDH
    76. Language                                 : English
    77. Default                                  : No
    78. Forced                                   : No

    79. Text #3
    80. ID                                       : 5
    81. Format                                   : PGS
    82. Muxing mode                              : zlib
    83. Codec ID                                 : S_HDMV/PGS
    84. Codec ID/Info                            : Picture based subtitle format used on BDs/HD-DVDs
    85. Duration                                 : 2 h 14 min
    86. Bit rate                                 : 24.4 kb/s
    87. Count of elements                        : 2204
    88. Stream size                              : 23.5 MiB (0%)
    89. Title                                    : SDH
    90. Language                                 : German
    91. Default                                  : No
    92. Forced                                   : No

    93. Text #4
    94. ID                                       : 6
    95. Format                                   : PGS
    96. Muxing mode                              : zlib
    97. Codec ID                                 : S_HDMV/PGS
    98. Codec ID/Info                            : Picture based subtitle format used on BDs/HD-DVDs
    99. Duration                                 : 2 h 14 min
    100. Bit rate                                 : 19.5 kb/s
    101. Count of elements                        : 1990
    102. Stream size                              : 18.7 MiB (0%)
    103. Title                                    : SDH
    104. Language                                 : French
    105. Default                                  : No
    106. Forced                                   : No

    107. Menu
    108. 00:00:00.000                             : en:00:00:00.000
    109. 00:05:10.936                             : en:00:05:10.936
    110. 00:10:03.144                             : en:00:10:03.144
    111. 00:13:01.572                             : en:00:13:01.572
    112. 00:16:43.294                             : en:00:16:43.294
    113. 00:22:12.122                             : en:00:22:12.122
    114. 00:25:27.901                             : en:00:25:27.901
    115. 00:32:08.385                             : en:00:32:08.385
    116. 00:37:44.846                             : en:00:37:44.846
    117. 00:41:00.958                             : en:00:41:00.958
    118. 00:46:09.600                             : en:00:46:09.600
    119. 00:50:32.279                             : en:00:50:32.279
    120. 00:57:05.672                             : en:00:57:05.672
    121. 00:59:37.574                             : en:00:59:37.574
    122. 01:07:06.814                             : en:01:07:06.814
    123. 01:12:48.990                             : en:01:12:48.990
    124. 01:18:23.073                             : en:01:18:23.073
    125. 01:22:20.060                             : en:01:22:20.060
    126. 01:24:34.861                             : en:01:24:34.861
    127. 01:32:57.322                             : en:01:32:57.322
    128. 01:38:39.622                             : en:01:38:39.622
    129. 01:47:20.059                             : en:01:47:20.059
    130. 01:56:20.932                             : en:01:56:20.932
    131. 02:02:48.653                             : en:02:02:48.653
    132. 02:10:11.595                             : en:02:10:11.595
    复制代码


    游客,如果您要查看本帖隐藏内容请回复




    找个高清片 欣赏欣赏 休息休息.....
    回复

    使用道具 举报

  • TA的每日心情
    无聊
    2022-11-7 13:33
  • 签到天数: 1 天

    [LV.1]初来乍到

    0

    主题

    7670

    回帖

    6326

    积分

    论坛元老

    Rank: 8Rank: 8

    积分
    6326
    发表于 2021-2-12 14:23:47 | 显示全部楼层

    非常精彩的电影,下来收藏,感谢楼主
    回复 支持 反对

    使用道具 举报

  • TA的每日心情
    无聊
    2022-11-7 13:33
  • 签到天数: 1 天

    [LV.1]初来乍到

    0

    主题

    7670

    回帖

    6326

    积分

    论坛元老

    Rank: 8Rank: 8

    积分
    6326
    发表于 2021-2-12 19:00:16 | 显示全部楼层
    这个帖子不回对不起自己!我想我是一天也不能离开蓝光电影网
    回复 支持 反对

    使用道具 举报

    该用户从未签到

    0

    主题

    5008

    回帖

    4516

    积分

    论坛元老

    Rank: 8Rank: 8

    积分
    4516
    发表于 2021-2-12 21:22:47 | 显示全部楼层
    感谢楼主的无私分享!要想蓝光高清电影网好 就靠你我他
    回复 支持 反对

    使用道具 举报

  • TA的每日心情
    奋斗
    2022-5-17 04:04
  • 签到天数: 1 天

    [LV.1]初来乍到

    0

    主题

    5327

    回帖

    4778

    积分

    论坛元老

    Rank: 8Rank: 8

    积分
    4778
    发表于 2021-2-14 13:09:35 | 显示全部楼层
    回复 支持 反对

    使用道具 举报

  • TA的每日心情
    无聊
    2022-11-7 13:33
  • 签到天数: 1 天

    [LV.1]初来乍到

    0

    主题

    7670

    回帖

    6326

    积分

    论坛元老

    Rank: 8Rank: 8

    积分
    6326
    发表于 2021-2-16 16:20:18 | 显示全部楼层
    回复 支持 反对

    使用道具 举报

  • TA的每日心情
    慵懒
    2022-9-15 21:40
  • 签到天数: 1 天

    [LV.1]初来乍到

    0

    主题

    2万

    回帖

    2万

    积分

    论坛元老

    Rank: 8Rank: 8

    积分
    21476
    发表于 2021-2-18 09:32:42 | 显示全部楼层
    回复 支持 反对

    使用道具 举报

  • TA的每日心情
    开心
    2021-3-12 13:42
  • 签到天数: 9 天

    [LV.3]偶尔看看II

    0

    主题

    23

    回帖

    86

    积分

    注册会员

    Rank: 2

    积分
    86
    发表于 2021-3-6 09:30:08 | 显示全部楼层
    都市牛郎/油脂牛仔 Urban.Cowboy.1980.720p.BluRay.x264-GUACAMOLE 5.13GB [修改]
    高级模式
    回复 支持 反对

    使用道具 举报

  • TA的每日心情
    开心
    2021-4-4 09:07
  • 签到天数: 4 天

    [LV.2]偶尔看看I

    0

    主题

    8

    回帖

    38

    积分

    新手上路

    Rank: 1

    积分
    38
    发表于 2021-4-4 09:16:43 | 显示全部楼层
    回复 支持 反对

    使用道具 举报

    懒得打字嘛,点击右侧快捷回复 【右侧内容,后台自定义】
    您需要登录后才可以回帖 登录 | 立即注册

    本版积分规则

    郑重声明,本站所有作品片源来自互联网公开渠道,均为网友上传交流学习,影视版权均归原电影公司所有,如有侵犯版权,请与 2322694662@qq.com 联系,我们将立即删除。

    小黑屋|手机版|Archiver|百度统计|投诉|蓝光电影下载

    GMT+8, 2023-2-9 07:49 , Processed in 0.135617 second(s), 31 queries , Gzip On, MemCached On.

    Powered by Discuz! X3.4

    © 2001-2013 Comsenz Inc.

    快速回复 返回顶部 返回列表