快捷导航
查看: 5335|回复: 33

[剧情] 焚尸人 The.Cremator.1969.REMASTERED.720p.BluRay.x264-USURY 7.05GB

[复制链接]
  • TA的每日心情
    开心
    2023-1-15 19:47
  • 签到天数: 258 天

    [LV.8]以坛为家I

    1万

    主题

    668

    回帖

    17万

    积分

    管理员

    蓝光君

    Rank: 9Rank: 9Rank: 9

    积分
    173304

    活跃会员热心会员推广达人突出贡献优秀版主荣誉管理论坛元老

    QQ
    发表于 2021-2-13 17:37:43 | 显示全部楼层 |阅读模式
    1. 帖子完整标题:焚尸人 The.Cremator.1969.REMASTERED.720p.BluRay.x264-USURY 7.05GB
    复制代码
    焚尸人 The.Cremator.1969.REMASTERED.720p.BluRay.x264-USURY 7.05GB-1.jpeg


    译  名 焚尸人 / The Cremator
    片  名 Spalova? mrtvol
    年  代 1969
    产  地 捷克斯洛伐克
    类  别 剧情 / 惊悚 / 恐怖
    语  言 捷克语
    上映日期 1969-03-14
    IMDb评分  8.0/10 from 6798 users
    IMDb链接  https://www.imdb.com/title/tt0063633
    豆瓣评分 8.3/10 from 2429 users
    豆瓣链接 https://movie.douban.com/subject/1486017/
    片  长 95 分钟
    导  演 Juraj Herz
    编  剧 Ladislav Fuks
    主  演 Vlasta Chramostová
           Rudolf Hrusínsky
           Jirí Menzel


    标  签 捷克 | 新浪潮 | 捷克电影 | 黑白 | 惊悚 | 1960s | 死亡崇拜 | 恐怖

    简  介   

      《焚尸人》根据拉迪斯拉夫·富克斯的同名小说改编。讲述了一个令人毛骨悚然的故事。卡尔是火葬场的管理人,他是反犹太主义者,并极其迷恋死亡。适逢纳粹侵略捷克斯洛伐克,他认为自己大展宏图的机会来了,但正当他准备大显身手时,却发现自己的妻子不是“纯净”的血统。这个事实让他走上了疯狂之路。他准备谋杀自己的妻子和同样不“纯洁”的儿子。
    1. Video
    2. ID                                       : 1
    3. Format                                   : AVC
    4. Format/Info                              : Advanced Video Codec
    5. Format profile                           : High@L4
    6. Format settings                          : CABAC / 9 Ref Frames
    7. Format settings, CABAC                   : Yes
    8. Format settings, Reference frames        : 9 frames
    9. Codec ID                                 : V_MPEG4/ISO/AVC
    10. Duration                                 : 1 h 40 min
    11. Bit rate                                 : 9 424 kb/s
    12. Width                                    : 1 194 pixels
    13. Height                                   : 720 pixels
    14. Display aspect ratio                     : 5:3
    15. Frame rate mode                          : Constant
    16. Frame rate                               : 23.976 (24000/1001/189150) FPS
    17. Color space                              : YUV
    18. Chroma subsampling                       : 4:2:0
    19. Bit depth                                : 8 bits
    20. Scan type                                : Progressive
    21. Bits/(Pixel*Frame)                       : 0.457
    22. Stream size                              : 6.63 GiB (94%)
    23. Writing library                          : x264 core 161 r3018 db0d417
    24. Encoding settings                        : cabac=1 / ref=9 / deblock=1:-3:-3 / analyse=0x3:0x133 / me=umh / subme=10 / psy=1 / psy_rd=1.00:0.15 / mixed_ref=1 / me_range=24 / chroma_me=1 / trellis=2 / 8x8dct=1 / cqm=0 / deadzone=21,11 / fast_pskip=1 / chroma_qp_offset=-3 / threads=18 / lookahead_threads=3 / sliced_threads=0 / nr=0 / decimate=1 / interlaced=0 / bluray_compat=0 / constrained_intra=0 / bframes=8 / b_pyramid=2 / b_adapt=2 / b_bias=0 / direct=3 / weightb=1 / open_gop=0 / weightp=2 / keyint=250 / keyint_min=23 / scenecut=40 / intra_refresh=0 / rc_lookahead=60 / rc=crf / mbtree=1 / crf=18.5 / qcomp=0.60 / qpmin=0 / qpmax=69 / qpstep=4 / ip_ratio=1.40 / aq=3:0.50
    25. Language                                 : English
    26. Default                                  : Yes
    27. Forced                                   : No

    28. Audio
    29. ID                                       : 2
    30. Format                                   : FLAC
    31. Format/Info                              : Free Lossless Audio Codec
    32. Codec ID                                 : A_FLAC
    33. Duration                                 : 1 h 40 min
    34. Bit rate mode                            : Variable
    35. Bit rate                                 : 575 kb/s
    36. Channel(s)                               : 1 channel
    37. Channel layout                           : C
    38. Sampling rate                            : 48.0 kHz
    39. Frame rate                               : 11.719 FPS (4096 SPF)
    40. Bit depth                                : 24 bits
    41. Compression mode                         : Lossless
    42. Stream size                              : 415 MiB (6%)
    43. Writing library                          : libFLAC 1.2.1 (UTC 2007-09-17)
    44. Language                                 : Czech
    45. Default                                  : Yes
    46. Forced                                   : No

    47. Text #1
    48. ID                                       : 3
    49. Format                                   : UTF-8
    50. Codec ID                                 : S_TEXT/UTF8
    51. Codec ID/Info                            : UTF-8 Plain Text
    52. Duration                                 : 1 h 40 min
    53. Bit rate                                 : 54 b/s
    54. Count of elements                        : 1214
    55. Stream size                              : 39.7 KiB (0%)
    56. Title                                    : English
    57. Language                                 : English
    58. Default                                  : Yes
    59. Forced                                   : Yes

    60. Text #2
    61. ID                                       : 4
    62. Format                                   : PGS
    63. Muxing mode                              : zlib
    64. Codec ID                                 : S_HDMV/PGS
    65. Codec ID/Info                            : Picture based subtitle format used on BDs/HD-DVDs
    66. Duration                                 : 1 h 40 min
    67. Bit rate                                 : 13.0 kb/s
    68. Count of elements                        : 2428
    69. Stream size                              : 9.34 MiB (0%)
    70. Title                                    : English
    71. Language                                 : English
    72. Default                                  : No
    73. Forced                                   : No

    74. Menu
    75. 00:00:00.000                             : en:00:00:00.000
    76. 00:05:59.609                             : en:00:05:59.609
    77. 00:13:21.676                             : en:00:13:21.676
    78. 00:21:30.831                             : en:00:21:30.831
    79. 00:28:35.422                             : en:00:28:35.422
    80. 00:36:05.830                             : en:00:36:05.830
    81. 00:42:08.359                             : en:00:42:08.359
    82. 00:46:06.764                             : en:00:46:06.764
    83. 00:52:24.350                             : en:00:52:24.350
    84. 00:59:23.393                             : en:00:59:23.393
    85. 01:11:01.591                             : en:01:11:01.591
    86. 01:20:43.547                             : en:01:20:43.547
    87. 01:32:08.982                             : en:01:32:08.982
    复制代码

    焚尸人 The.Cremator.1969.REMASTERED.720p.BluRay.x264-USURY 7.05GB-2.jpeg
    游客,如果您要查看本帖隐藏内容请回复





    找个高清片 欣赏欣赏 休息休息.....
    回复

    使用道具 举报

    该用户从未签到

    0

    主题

    5008

    回帖

    4516

    积分

    论坛元老

    Rank: 8Rank: 8

    积分
    4516
    发表于 2021-2-13 23:33:15 | 显示全部楼层
    回复 支持 反对

    使用道具 举报

    该用户从未签到

    0

    主题

    1668

    回帖

    1585

    积分

    金牌会员

    Rank: 6Rank: 6

    积分
    1585
    发表于 2021-2-15 21:53:18 | 显示全部楼层
    回复 支持 反对

    使用道具 举报

    该用户从未签到

    0

    主题

    1200

    回帖

    1126

    积分

    金牌会员

    Rank: 6Rank: 6

    积分
    1126
    发表于 2021-2-15 22:59:29 | 显示全部楼层
    回复 支持 反对

    使用道具 举报

  • TA的每日心情
    无聊
    2022-11-7 13:33
  • 签到天数: 1 天

    [LV.1]初来乍到

    0

    主题

    7670

    回帖

    6326

    积分

    论坛元老

    Rank: 8Rank: 8

    积分
    6326
    发表于 2021-2-16 10:07:45 | 显示全部楼层
    回复 支持 反对

    使用道具 举报

  • TA的每日心情
    慵懒
    2022-9-15 21:40
  • 签到天数: 1 天

    [LV.1]初来乍到

    0

    主题

    2万

    回帖

    2万

    积分

    论坛元老

    Rank: 8Rank: 8

    积分
    21476
    发表于 2021-2-21 00:06:41 | 显示全部楼层
    这个帖子不回对不起自己!我想我是一天也不能离开蓝光电影网
    回复 支持 反对

    使用道具 举报

    该用户从未签到

    0

    主题

    8084

    回帖

    7843

    积分

    论坛元老

    Rank: 8Rank: 8

    积分
    7843
    发表于 2021-3-8 09:41:03 | 显示全部楼层
    回复 支持 反对

    使用道具 举报

  • TA的每日心情
    开心
    2021-3-12 13:42
  • 签到天数: 9 天

    [LV.3]偶尔看看II

    0

    主题

    23

    回帖

    86

    积分

    注册会员

    Rank: 2

    积分
    86
    发表于 2021-3-8 15:33:22 | 显示全部楼层
    焚尸人 The.Cremator.1969.REMASTERED.720p.BluRay.x264-USURY 7.05GB [修改]
    回复 支持 反对

    使用道具 举报

    该用户从未签到

    0

    主题

    1484

    回帖

    1383

    积分

    金牌会员

    Rank: 6Rank: 6

    积分
    1383
    发表于 2021-3-13 20:49:08 | 显示全部楼层
    回复 支持 反对

    使用道具 举报

    该用户从未签到

    0

    主题

    3

    回帖

    12

    积分

    新手上路

    Rank: 1

    积分
    12
    发表于 2021-4-1 19:02:37 | 显示全部楼层
    回复 支持 反对

    使用道具 举报

    懒得打字嘛,点击右侧快捷回复 【右侧内容,后台自定义】
    您需要登录后才可以回帖 登录 | 立即注册

    本版积分规则

    郑重声明,本站所有作品片源来自互联网公开渠道,均为网友上传交流学习,影视版权均归原电影公司所有,如有侵犯版权,请与 2322694662@qq.com 联系,我们将立即删除。

    小黑屋|手机版|Archiver|百度统计|投诉|蓝光电影下载

    GMT+8, 2023-2-9 07:48 , Processed in 0.119079 second(s), 30 queries , Gzip On, MemCached On.

    Powered by Discuz! X3.4

    © 2001-2013 Comsenz Inc.

    快速回复 返回顶部 返回列表