快捷导航
查看: 9078|回复: 46

[剧情] 三色堇 Moffie.2019.720p.BluRay.x264-SPOOKS 6.05GB

[复制链接]
  • TA的每日心情
    开心
    2023-1-15 19:47
  • 签到天数: 258 天

    [LV.8]以坛为家I

    1万

    主题

    668

    回帖

    17万

    积分

    管理员

    蓝光君

    Rank: 9Rank: 9Rank: 9

    积分
    173304

    活跃会员热心会员推广达人突出贡献优秀版主荣誉管理论坛元老

    QQ
    发表于 2021-2-21 17:34:33 | 显示全部楼层 |阅读模式
    1. 帖子完整标题:三色堇 Moffie.2019.720p.BluRay.x264-SPOOKS 6.05GB
    复制代码
    三色堇 Moffie.2019.720p.BluRay.x264-SPOOKS 6.05GB-1.jpeg


    译  名 三色堇 / Moffie / Pansy
    片  名 Moffie
    年  代 2019
    产  地 南非 / 英国
    类  别 剧情 / 同性
    语  言 南非语 / 英语
    上映日期 2019-09-04(威尼斯电影节)
    IMDb评分  7.2/10 from 449 users
    IMDb链接  https://www.imdb.com/title/tt10699362
    豆瓣评分 6.7/10 from 99 users
    豆瓣链接 https://movie.douban.com/subject/34679952/
    片  长 99分钟
    导  演 奥利弗·赫曼纽斯 Oliver Hermanus
    编  剧 奥利弗·赫曼纽斯 Oliver Hermanus / Jack Sidey
    主  演 Kai Luke Brummer
           Ryan de Villiers
           Matthew Vey
           Stefan Vermaak
           Hilton Pelser
           Wynand Ferreira
           Hendrik Nieuwoudt
           Shaun Chad Smit
           Rikus Terblanche
           Matt Ashwell
           Ludwig Baxter
           Philippa Berrington-Blew
           Dijan Botha
           Mitchell Christy
           Jan Combrink
           马克·埃尔德金 Mark Elderkin


    标  签 南非 | 同性 | 英国 | 2019 | LGBT | 剧情 | 南非电影 | 威尼斯电影节

    简  介   

      在南非,Moffie是对同性恋者的贬义词,片中,男主尼克16岁时去南非服兵役。从小就与众不同的他,在军营中发现了自己的秘密。
      在同性恋就是犯罪的国度,一旦做出选择,就无法回头。封闭的军营伴随着暴力、种族歧视、男人至上的理念,如三色堇般美丽的爱恋,要如何安放?

    获奖情况  

      第76届威尼斯电影节(2019)
      地平线单元奖 最佳影片(提名) 奥利弗·赫曼纽斯

      第22届英国独立电影奖(2019)
      最佳导演(提名) 奥利弗·赫曼纽斯
      制片突破(提名)
      最佳摄影(提名)
    1. Video
    2. ID                                       : 1
    3. Format                                   : AVC
    4. Format/Info                              : Advanced Video Codec
    5. Format profile                           : High@L4
    6. Format settings                          : CABAC / 10 Ref Frames
    7. Format settings, CABAC                   : Yes
    8. Format settings, Reference frames        : 10 frames
    9. Codec ID                                 : V_MPEG4/ISO/AVC
    10. Duration                                 : 1 h 43 min
    11. Bit rate                                 : 7 688 kb/s
    12. Width                                    : 1 064 pixels
    13. Height                                   : 720 pixels
    14. Display aspect ratio                     : 3:2
    15. Frame rate mode                          : Constant
    16. Frame rate                               : 24.000 FPS
    17. Color space                              : YUV
    18. Chroma subsampling                       : 4:2:0
    19. Bit depth                                : 8 bits
    20. Scan type                                : Progressive
    21. Bits/(Pixel*Frame)                       : 0.418
    22. Stream size                              : 5.58 GiB (92%)
    23. Writing library                          : x264 core 161 r3018 db0d417
    24. Encoding settings                        : cabac=1 / ref=10 / deblock=1:-3:-3 / analyse=0x3:0x133 / me=umh / subme=10 / psy=1 / psy_rd=1.20:0.00 / mixed_ref=1 / me_range=24 / chroma_me=1 / trellis=2 / 8x8dct=1 / cqm=0 / deadzone=21,11 / fast_pskip=0 / chroma_qp_offset=-2 / threads=22 / lookahead_threads=3 / sliced_threads=0 / nr=0 / decimate=0 / interlaced=0 / bluray_compat=0 / constrained_intra=0 / bframes=8 / b_pyramid=2 / b_adapt=2 / b_bias=0 / direct=3 / weightb=1 / open_gop=0 / weightp=2 / keyint=250 / keyint_min=24 / scenecut=40 / intra_refresh=0 / rc=crf / mbtree=0 / crf=16.5 / qcomp=0.60 / qpmin=0 / qpmax=69 / qpstep=4 / ip_ratio=1.40 / pb_ratio=1.30 / aq=3:0.90
    25. Default                                  : Yes
    26. Forced                                   : No
    27. Color range                              : Limited
    28. Matrix coefficients                      : BT.709

    29. Audio
    30. ID                                       : 2
    31. Format                                   : AC-3
    32. Format/Info                              : Audio Coding 3
    33. Commercial name                          : Dolby Digital
    34. Codec ID                                 : A_AC3
    35. Duration                                 : 1 h 43 min
    36. Bit rate mode                            : Constant
    37. Bit rate                                 : 640 kb/s
    38. Channel(s)                               : 6 channels
    39. Channel layout                           : L R C LFE Ls Rs
    40. Sampling rate                            : 48.0 kHz
    41. Frame rate                               : 31.250 FPS (1536 SPF)
    42. Bit depth                                : 16 bits
    43. Compression mode                         : Lossy
    44. Stream size                              : 476 MiB (8%)
    45. Language                                 : English
    46. Service kind                             : Complete Main
    47. Default                                  : Yes
    48. Forced                                   : No

    49. Menu
    50. 00:00:00.000                             : en:Chapter 01
    51. 00:06:22.542                             : en:Chapter 02
    52. 00:13:27.875                             : en:Chapter 03
    53. 00:18:18.167                             : en:Chapter 04
    54. 00:25:32.833                             : en:Chapter 05
    55. 00:33:15.625                             : en:Chapter 06
    56. 00:52:02.000                             : en:Chapter 07
    57. 01:03:48.292                             : en:Chapter 08
    58. 01:11:54.583                             : en:Chapter 09
    59. 01:20:41.500                             : en:Chapter 10
    60. 01:31:35.958                             : en:Chapter 11
    61. 01:40:15.333                             : en:Chapter 12
    复制代码

    三色堇 Moffie.2019.720p.BluRay.x264-SPOOKS 6.05GB-2.jpeg

    游客,如果您要查看本帖隐藏内容请回复




    找个高清片 欣赏欣赏 休息休息.....
    回复

    使用道具 举报

    该用户从未签到

    0

    主题

    1657

    回帖

    1521

    积分

    金牌会员

    Rank: 6Rank: 6

    积分
    1521
    发表于 2021-3-2 16:08:36 | 显示全部楼层
    感谢楼主的无私分享!要想蓝光高清电影网好 就靠你我他
    回复 支持 反对

    使用道具 举报

  • TA的每日心情
    无聊
    2022-11-7 13:33
  • 签到天数: 1 天

    [LV.1]初来乍到

    0

    主题

    7670

    回帖

    6326

    积分

    论坛元老

    Rank: 8Rank: 8

    积分
    6326
    发表于 2021-3-3 15:45:45 | 显示全部楼层
    回复 支持 反对

    使用道具 举报

  • TA的每日心情
    慵懒
    2022-9-15 21:40
  • 签到天数: 1 天

    [LV.1]初来乍到

    0

    主题

    2万

    回帖

    2万

    积分

    论坛元老

    Rank: 8Rank: 8

    积分
    21476
    发表于 2021-3-3 22:14:17 | 显示全部楼层

    非常精彩的电影,下来收藏,感谢楼主
    回复 支持 反对

    使用道具 举报

  • TA的每日心情
    开心
    2021-3-12 13:42
  • 签到天数: 9 天

    [LV.3]偶尔看看II

    0

    主题

    23

    回帖

    86

    积分

    注册会员

    Rank: 2

    积分
    86
    发表于 2021-3-6 09:30:44 | 显示全部楼层
    三色堇 Moffie.2019.720p.BluRay.x264-SPOOKS 6.05GB [修改]
    高级模式
    回复 支持 反对

    使用道具 举报

  • TA的每日心情
    无聊
    2022-11-7 13:33
  • 签到天数: 1 天

    [LV.1]初来乍到

    0

    主题

    7670

    回帖

    6326

    积分

    论坛元老

    Rank: 8Rank: 8

    积分
    6326
    发表于 2021-3-6 09:30:44 | 显示全部楼层
    回复 支持 反对

    使用道具 举报

    该用户从未签到

    0

    主题

    1256

    回帖

    1144

    积分

    金牌会员

    Rank: 6Rank: 6

    积分
    1144
    发表于 2021-3-12 00:45:04 | 显示全部楼层
    回复 支持 反对

    使用道具 举报

  • TA的每日心情
    郁闷
    2021-3-12 19:18
  • 签到天数: 3 天

    [LV.2]偶尔看看I

    0

    主题

    8

    回帖

    26

    积分

    新手上路

    Rank: 1

    积分
    26
    发表于 2021-3-12 19:18:46 | 显示全部楼层
    回复 支持 反对

    使用道具 举报

  • TA的每日心情
    开心
    2022-12-9 17:50
  • 签到天数: 66 天

    [LV.6]常住居民II

    0

    主题

    74

    回帖

    489

    积分

    中级会员

    Rank: 3Rank: 3

    积分
    489
    发表于 2021-3-23 20:55:14 | 显示全部楼层

    我看不错噢 谢谢楼主!蓝光电影网越来越好!
    回复 支持 反对

    使用道具 举报

    该用户从未签到

    0

    主题

    2

    回帖

    10

    积分

    新手上路

    Rank: 1

    积分
    10
    发表于 2021-4-10 16:46:43 | 显示全部楼层
    回复 支持 反对

    使用道具 举报

    懒得打字嘛,点击右侧快捷回复 【右侧内容,后台自定义】
    您需要登录后才可以回帖 登录 | 立即注册

    本版积分规则

    郑重声明,本站所有作品片源来自互联网公开渠道,均为网友上传交流学习,影视版权均归原电影公司所有,如有侵犯版权,请与 2322694662@qq.com 联系,我们将立即删除。

    小黑屋|手机版|Archiver|百度统计|投诉|蓝光电影下载

    GMT+8, 2023-2-9 08:07 , Processed in 0.131881 second(s), 31 queries , Gzip On, MemCached On.

    Powered by Discuz! X3.4

    © 2001-2013 Comsenz Inc.

    快速回复 返回顶部 返回列表