快捷导航
查看: 11117|回复: 53

[动作] 纳瓦隆第十突击队/六壮士续集 Force.10.from.Navarone.1978.REMASTERED.720p.BluRay.x264-SPOOKS 7.

[复制链接]
  • TA的每日心情
    开心
    2023-1-14 21:22
  • 签到天数: 24 天

    [LV.4]偶尔看看III

    508

    主题

    49

    回帖

    1499

    积分

    发布组

    积分
    1499
    发表于 2021-2-21 17:41:14 | 显示全部楼层 |阅读模式
    1. 帖子完整标题:纳瓦隆第十突击队/六壮士续集 Force.10.from.Navarone.1978.REMASTERED.720p.BluRay.x264-SPOOKS 7.66GB
    复制代码
    纳瓦隆第十突击队/六壮士续集 Force.10.from.Navarone.1978.REMASTERED.720p.BluRay.x264-SPOOKS 7.-1.jpeg


    译  名 纳瓦隆第十突击队 / 六壮士续集(港 / 台)
    片  名 Force 10 from Navarone
    年  代 1978
    产  地 英国
    类  别 剧情 / 动作 / 战争
    语  言 英语
    上映日期 1979-02-01
    IMDb评分  6.4/10 from 16260 users
    IMDb链接  https://www.imdb.com/title/tt0077572
    豆瓣评分 7.2/10 from 367 users
    豆瓣链接 https://movie.douban.com/subject/1294311/
    片  长 118 分钟
    导  演 盖伊·汉弥尔顿 Guy Hamilton
    编  剧 Alistair MacLean / Carl Foreman / Robin Chapman
    主  演 哈里森·福特 Harrison Ford
           罗伯特·肖 Robert Shaw


    标  签 战争 | 二战 | 英国 | 哈里森·福特 | 英国电影 | 1978 | 美国 | 纳瓦隆

    简  介   

      在爱琴海中央,坐落着一座叫纳瓦隆的小岛。1943年,对同盟军一方它就如同一根芒刺,新型雷达控制的火炮深深地安装在这块古老的岩石的心脏,使德军最高统帅完全取得了战略性控制,空军和海军的进攻明显耗资巨大,而且效果甚微。在危机中,盟军转而采用渗透战术。9月24日夜,一支特训突击队成功潜入了巨炮阵地的核心,在巨型弹药库的底座安置了炸药,然后撤离并等待着皇家海军军舰的救援。纳瓦隆大炮终于被摧毁了,但这只是阶段性的胜利。
      炸毁德军纳瓦隆大炮后,队长马龙和破坏专家米勒是仅存的生还者,现在上级派他们执行另一项更艰巨的任务,就是炸毁一条让德军和意军得以联结的桥梁。而队长马龙另外还有一个秘密任务,就是要处理掉德军潜伏在我军的间谍尼科莱,而马龙是唯一曾经见过他的人。这次他们是在美军的指挥下作战,并加入了新的队员,组成了第十突击队小组。之前的几次的突击任务,都被内部间谍暴露了行踪。为了确保任务的万无一失,第十突击队决定采取秘密行动。
      但却不想还没出军营,就与医疗队的战士发生火拼,对方的黑人士兵维沃中士立下了汗马功劳,并加入了他们的队伍。正当他们接近纳瓦隆小岛的时候,飞机遭到了袭击,无奈之下几人只能跳伞逃生。途中一行人等被伪装成游记队员的魔鬼党抓住,他们是德军的盟友。马龙和巴斯帕上校在德军长官情妇玛丽塔的帮助下逃离了魔爪,并来到了由佩特罗维奇领导的游击队。马龙一眼就认出了如今身为游击队上层领导的间谍尼科莱,但苦于没有证据,只能暂时按兵不动。
      想要完成炸毁桥梁的艰巨任务,没有炸弹专家米勒的帮助肯定是不行。马龙和巴斯帕上校只向佩特罗维奇要了两人增援,就前赴德军大牢救出米勒和维沃等人。炸桥计划紧锣密鼓地进行着,其间遇到各种困难,但都一一攻破。在行动过程中,尼科莱终于暴露了自己的真实身份,被马龙处死。炸桥计划实施得非常成功,但就在他们千辛万苦达成任务时,才发现他们自己身处在河的另一端,也就是敌人阵营的那一端,他们要如何平安返回则成了接下来要完成的艰巨任务。
      引自MTIME
    1. Video
    2. ID                                       : 1
    3. Format                                   : AVC
    4. Format/Info                              : Advanced Video Codec
    5. Format profile                           : High@L4
    6. Format settings                          : CABAC / 12 Ref Frames
    7. Format settings, CABAC                   : Yes
    8. Format settings, Reference frames        : 12 frames
    9. Codec ID                                 : V_MPEG4/ISO/AVC
    10. Duration                                 : 2 h 5 min
    11. Bit rate                                 : 7 958 kb/s
    12. Width                                    : 1 280 pixels
    13. Height                                   : 534 pixels
    14. Display aspect ratio                     : 2.40:1
    15. Frame rate mode                          : Constant
    16. Frame rate                               : 23.976 (24000/1001/189150) FPS
    17. Color space                              : YUV
    18. Chroma subsampling                       : 4:2:0
    19. Bit depth                                : 8 bits
    20. Scan type                                : Progressive
    21. Bits/(Pixel*Frame)                       : 0.486
    22. Stream size                              : 7.00 GiB (91%)
    23. Writing library                          : x264 core 161 r3018 db0d417
    24. Encoding settings                        : cabac=1 / ref=12 / deblock=1:-3:-3 / analyse=0x3:0x133 / me=umh / subme=10 / psy=1 / psy_rd=1.50:0.15 / mixed_ref=1 / me_range=24 / chroma_me=1 / trellis=2 / 8x8dct=1 / cqm=0 / deadzone=21,11 / fast_pskip=0 / chroma_qp_offset=-3 / threads=17 / lookahead_threads=2 / sliced_threads=0 / nr=0 / decimate=0 / interlaced=0 / bluray_compat=0 / constrained_intra=0 / bframes=8 / b_pyramid=2 / b_adapt=2 / b_bias=0 / direct=3 / weightb=1 / open_gop=0 / weightp=2 / keyint=250 / keyint_min=23 / scenecut=40 / intra_refresh=0 / rc=crf / mbtree=0 / crf=16.0 / qcomp=0.60 / qpmin=0 / qpmax=69 / qpstep=4 / ip_ratio=1.40 / pb_ratio=1.30 / aq=3:0.50
    25. Default                                  : Yes
    26. Forced                                   : No
    27. Color range                              : Limited
    28. Matrix coefficients                      : BT.709

    29. Audio #1
    30. ID                                       : 2
    31. Format                                   : AC-3
    32. Format/Info                              : Audio Coding 3
    33. Commercial name                          : Dolby Digital
    34. Codec ID                                 : A_AC3
    35. Duration                                 : 2 h 5 min
    36. Bit rate mode                            : Constant
    37. Bit rate                                 : 640 kb/s
    38. Channel(s)                               : 6 channels
    39. Channel layout                           : L R C LFE Ls Rs
    40. Sampling rate                            : 48.0 kHz
    41. Frame rate                               : 31.250 FPS (1536 SPF)
    42. Bit depth                                : 16 bits
    43. Compression mode                         : Lossy
    44. Stream size                              : 577 MiB (7%)
    45. Language                                 : English
    46. Service kind                             : Complete Main
    47. Default                                  : Yes
    48. Forced                                   : No

    49. Audio #2
    50. ID                                       : 3
    51. Format                                   : AAC LC
    52. Format/Info                              : Advanced Audio Codec Low Complexity
    53. Codec ID                                 : A_AAC-2
    54. Duration                                 : 2 h 5 min
    55. Bit rate                                 : 96.0 kb/s
    56. Channel(s)                               : 2 channels
    57. Channel layout                           : L R
    58. Sampling rate                            : 48.0 kHz
    59. Frame rate                               : 46.875 FPS (1024 SPF)
    60. Compression mode                         : Lossy
    61. Delay relative to video                  : 20 ms
    62. Stream size                              : 88.1 MiB (1%)
    63. Title                                    : Commentary
    64. Language                                 : English
    65. Default                                  : No
    66. Forced                                   : No

    67. Text
    68. ID                                       : 4
    69. Format                                   : PGS
    70. Muxing mode                              : zlib
    71. Codec ID                                 : S_HDMV/PGS
    72. Codec ID/Info                            : Picture based subtitle format used on BDs/HD-DVDs
    73. Duration                                 : 2 h 5 min
    74. Bit rate                                 : 28.8 kb/s
    75. Count of elements                        : 2286
    76. Stream size                              : 25.8 MiB (0%)
    77. Title                                    : SDH
    78. Language                                 : English
    79. Default                                  : No
    80. Forced                                   : No

    81. Menu
    82. 00:00:00.000                             : en:Chapter 01
    83. 00:14:18.733                             : en:Chapter 02
    84. 00:23:03.841                             : en:Chapter 03
    85. 00:34:48.920                             : en:Chapter 04
    86. 00:45:17.673                             : en:Chapter 05
    87. 00:55:27.533                             : en:Chapter 06
    88. 01:05:07.487                             : en:Chapter 07
    89. 01:14:47.108                             : en:Chapter 08
    90. 01:22:41.874                             : en:Chapter 09
    91. 01:36:12.517                             : en:Chapter 10
    92. 01:46:59.705                             : en:Chapter 11
    93. 01:54:45.754                             : en:Chapter 12
    复制代码

    纳瓦隆第十突击队/六壮士续集 Force.10.from.Navarone.1978.REMASTERED.720p.BluRay.x264-SPOOKS 7.-2.jpeg
    游客,如果您要查看本帖隐藏内容请回复





    回复

    使用道具 举报

    该用户从未签到

    0

    主题

    2837

    回帖

    2651

    积分

    金牌会员

    Rank: 6Rank: 6

    积分
    2651
    发表于 2021-2-21 17:41:31 | 显示全部楼层
    这个帖子不回对不起自己!我想我是一天也不能离开蓝光电影网
    回复 支持 反对

    使用道具 举报

  • TA的每日心情
    慵懒
    2022-9-15 21:40
  • 签到天数: 1 天

    [LV.1]初来乍到

    0

    主题

    2万

    回帖

    2万

    积分

    论坛元老

    Rank: 8Rank: 8

    积分
    21476
    发表于 2021-2-21 23:04:03 | 显示全部楼层
    回复 支持 反对

    使用道具 举报

  • TA的每日心情
    开心
    2021-4-18 15:19
  • 签到天数: 9 天

    [LV.3]偶尔看看II

    0

    主题

    15

    回帖

    64

    积分

    注册会员

    Rank: 2

    积分
    64
    发表于 2021-2-22 10:17:09 | 显示全部楼层
    好电影,虽然是年代久远了一点
    回复 支持 反对

    使用道具 举报

    该用户从未签到

    0

    主题

    561

    回帖

    510

    积分

    高级会员

    Rank: 4

    积分
    510
    发表于 2021-2-22 10:17:09 | 显示全部楼层

    是个好电影!必须要看的!多谢分享!
    回复 支持 反对

    使用道具 举报

  • TA的每日心情
    慵懒
    2022-9-15 21:40
  • 签到天数: 1 天

    [LV.1]初来乍到

    0

    主题

    2万

    回帖

    2万

    积分

    论坛元老

    Rank: 8Rank: 8

    积分
    21476
    发表于 2021-2-22 20:25:25 | 显示全部楼层

    非常精彩的电影,下来收藏,感谢楼主
    回复 支持 反对

    使用道具 举报

  • TA的每日心情
    慵懒
    2022-9-15 21:40
  • 签到天数: 1 天

    [LV.1]初来乍到

    0

    主题

    2万

    回帖

    2万

    积分

    论坛元老

    Rank: 8Rank: 8

    积分
    21476
    发表于 2021-2-23 03:06:34 | 显示全部楼层
    楼主太厉害了!楼主,电影应该很好看我觉得蓝光电影下载真是个好地方!
    回复 支持 反对

    使用道具 举报

  • TA的每日心情
    奋斗
    2022-5-17 04:04
  • 签到天数: 1 天

    [LV.1]初来乍到

    0

    主题

    5327

    回帖

    4778

    积分

    论坛元老

    Rank: 8Rank: 8

    积分
    4778
    发表于 2021-2-23 19:29:59 | 显示全部楼层
    回复 支持 反对

    使用道具 举报

  • TA的每日心情

    2021-3-1 11:07
  • 签到天数: 5 天

    [LV.2]偶尔看看I

    0

    主题

    19

    回帖

    58

    积分

    注册会员

    Rank: 2

    积分
    58
    发表于 2021-2-25 15:48:58 | 显示全部楼层
    楼主发贴辛苦了,谢谢楼主分享!我觉得蓝光电影网是注册对了!
    回复 支持 反对

    使用道具 举报

    该用户从未签到

    0

    主题

    4932

    回帖

    4761

    积分

    论坛元老

    Rank: 8Rank: 8

    积分
    4761
    发表于 2021-2-25 16:59:27 | 显示全部楼层
    回复 支持 反对

    使用道具 举报

    懒得打字嘛,点击右侧快捷回复 【右侧内容,后台自定义】
    您需要登录后才可以回帖 登录 | 立即注册

    本版积分规则

    郑重声明,本站所有作品片源来自互联网公开渠道,均为网友上传交流学习,影视版权均归原电影公司所有,如有侵犯版权,请与 2322694662@qq.com 联系,我们将立即删除。

    小黑屋|手机版|Archiver|百度统计|投诉|蓝光电影下载

    GMT+8, 2023-2-9 06:33 , Processed in 0.125698 second(s), 19 queries , Gzip On, MemCached On.

    Powered by Discuz! X3.4

    © 2001-2013 Comsenz Inc.

    快速回复 返回顶部 返回列表