快捷导航
查看: 749|回复: 12

[恐怖] 食女 Over.Your.Dead.Body.2014.1080p.BluRay.x264-USURY 6.56GB

[复制链接]
  • TA的每日心情

    10 分钟前
  • 签到天数: 133 天

    [LV.7]常住居民III

    2496

    主题

    2631

    帖子

    5748

    积分

    发布组

    积分
    5748
    发表于 2021-3-6 13:24:36 | 显示全部楼层 |阅读模式
    1. 帖子完整标题:食女 Over.Your.Dead.Body.2014.1080p.BluRay.x264-USURY 6.56GB
    复制代码
    食女 Over.Your.Dead.Body.2014.1080p.BluRay.x264-USURY 6.56GB-1.jpeg


    译  名 食女 / Kuime / Over Your Dead Body / 誰にもあげない 真四谷怪談 / 鬼门食女(台)
    片  名 喰女 -クイメ-
    年  代 2014
    产  地 日本
    类  别 恐怖
    语  言 日语
    上映日期 2014-08-23(日本)
    IMDb评分  6.1/10 from 1170 users
    IMDb链接  https://www.imdb.com/title/tt2916416
    豆瓣评分 6.1/10 from 2736 users
    豆瓣链接 https://movie.douban.com/subject/24696717/
    片  长 93分钟
    导  演 三池崇史 Takashi Miike
    编  剧 山岸菊美 Kikumi Yamagishi
    主  演 柴崎幸 Kou Shibasaki
           市川海老藏 Ebiz? Ichikawa
           伊藤英明 Hideaki Ito
           中西美帆 Miho Nakanishi
           麻衣子 Maiko
           片山瞳 Hitomi Katayama
           根岸季衣 Toshie Negishi
           胜野洋 Hiroshi Katsuno
           古谷一行 Ikk? Furuya


    标  签 恐怖 | 日本 | 三池崇史 | 日本电影 | 2014 | 柴崎幸 | 惊悚 | 伊藤英明

    简  介   

      一出根据经典传说《四谷怪谈》改编的舞台剧正在进行紧张的排练,当红女明星后藤美雪(柴崎幸 饰)及其人气平平却花心浪荡的男友长谷川浩介(市川海老藏 饰)分别饰演最终成为怨灵的阿岩以及负心武士伊右卫门。现实和戏剧相互映射,让二人越来越分不清两者间的界限。长谷川与新人女优朝比奈梨绪(中西美帆 饰)和美雪的助理仓田加代子(麻衣子 饰)暧昧不清,美雪如同阿岩一般看在眼里,忍气吞声,心中的郁闷和怨念则不断累积。和梨绪交际的长谷川彻夜不归,这令她的女友彻底陷入了癫狂失智的状态。沉湎爱欲的一群人,仿佛都受到了恶灵的诅咒……
      本片根据山岸きくみ的原作《誰にもあげない》改编

    获奖情况  

      第9届亚洲电影大奖(2015)
      最佳美术指导(提名)
      最佳造型设计(提名)
    1. Video
    2. ID                                       : 1
    3. Format                                   : AVC
    4. Format/Info                              : Advanced Video Codec
    5. Format profile                           : High@L4
    6. Format settings                          : CABAC / 5 Ref Frames
    7. Format settings, CABAC                   : Yes
    8. Format settings, Reference frames        : 5 frames
    9. Codec ID                                 : V_MPEG4/ISO/AVC
    10. Duration                                 : 1 h 34 min
    11. Bit rate                                 : 8 466 kb/s
    12. Width                                    : 1 920 pixels
    13. Height                                   : 800 pixels
    14. Display aspect ratio                     : 2.40:1
    15. Frame rate mode                          : Constant
    16. Frame rate                               : 23.976 FPS
    17. Color space                              : YUV
    18. Chroma subsampling                       : 4:2:0
    19. Bit depth                                : 8 bits
    20. Scan type                                : Progressive
    21. Bits/(Pixel*Frame)                       : 0.230
    22. Stream size                              : 5.56 GiB (85%)
    23. Writing library                          : x264 core 148 r2665 a01e339
    24. Encoding settings                        : cabac=1 / ref=5 / deblock=1:0:0 / analyse=0x3:0x133 / me=umh / subme=7 / psy=1 / psy_rd=1.00:0.00 / mixed_ref=1 / me_range=16 / chroma_me=1 / trellis=1 / 8x8dct=1 / cqm=0 / deadzone=21,11 / fast_pskip=0 / chroma_qp_offset=-2 / threads=18 / lookahead_threads=3 / sliced_threads=0 / nr=0 / decimate=1 / interlaced=0 / bluray_compat=0 / constrained_intra=0 / bframes=3 / b_pyramid=2 / b_adapt=2 / b_bias=0 / direct=3 / weightb=1 / open_gop=0 / weightp=2 / keyint=250 / keyint_min=23 / scenecut=40 / intra_refresh=0 / rc_lookahead=50 / rc=2pass / mbtree=1 / bitrate=8466 / ratetol=1.0 / qcomp=0.60 / qpmin=0 / qpmax=69 / qpstep=4 / cplxblur=20.0 / qblur=0.5 / ip_ratio=1.40 / aq=1:1.00
    25. Language                                 : English
    26. Default                                  : Yes
    27. Forced                                   : No

    28. Audio
    29. ID                                       : 2
    30. Format                                   : DTS
    31. Format/Info                              : Digital Theater Systems
    32. Codec ID                                 : A_DTS
    33. Duration                                 : 1 h 34 min
    34. Bit rate mode                            : Constant
    35. Bit rate                                 : 1 509 kb/s
    36. Channel(s)                               : 6 channels
    37. Channel layout                           : C L R Ls Rs LFE
    38. Sampling rate                            : 48.0 kHz
    39. Frame rate                               : 93.750 FPS (512 SPF)
    40. Bit depth                                : 24 bits
    41. Compression mode                         : Lossy
    42. Stream size                              : 1 016 MiB (15%)
    43. Language                                 : Japanese
    44. Default                                  : Yes
    45. Forced                                   : No

    46. Text
    47. ID                                       : 3
    48. Format                                   : UTF-8
    49. Codec ID                                 : S_TEXT/UTF8
    50. Codec ID/Info                            : UTF-8 Plain Text
    51. Duration                                 : 1 h 31 min
    52. Bit rate                                 : 16 b/s
    53. Count of elements                        : 487
    54. Stream size                              : 11.1 KiB (0%)
    55. Language                                 : English
    56. Default                                  : Yes
    57. Forced                                   : Yes

    58. Menu
    59. 00:00:00.000                             : en:00:00:00.000
    60. 00:06:26.928                             : en:00:06:26.928
    61. 00:16:39.707                             : en:00:16:39.707
    62. 00:24:44.483                             : en:00:24:44.483
    63. 00:32:44.629                             : en:00:32:44.629
    64. 00:41:50.633                             : en:00:41:50.633
    65. 00:52:15.257                             : en:00:52:15.257
    66. 01:00:54.818                             : en:01:00:54.818
    67. 01:08:37.030                             : en:01:08:37.030
    68. 01:18:55.230                             : en:01:18:55.230
    69. 01:26:45.951                             : en:01:26:45.951
    70. 01:30:18.288                             : en:01:30:18.288
    复制代码

    食女 Over.Your.Dead.Body.2014.1080p.BluRay.x264-USURY 6.56GB-2.jpeg
    本帖隐藏的内容需要VIP会员才可浏览,您需要升级才可浏览,点击这里升级VIP





    回复

    使用道具 举报

    该用户从未签到

    0

    主题

    1174

    帖子

    903

    积分

    高级会员

    Rank: 4

    积分
    903
    发表于 2021-3-6 13:24:52 | 显示全部楼层
    回复 支持 反对

    使用道具 举报

    该用户从未签到

    0

    主题

    576

    帖子

    525

    积分

    高级会员

    Rank: 4

    积分
    525
    发表于 2021-3-6 16:23:50 | 显示全部楼层
    这个帖子不回对不起自己!我想我是一天也不能离开蓝光电影网
    回复 支持 反对

    使用道具 举报

    该用户从未签到

    0

    主题

    4963

    帖子

    4335

    积分

    论坛元老

    Rank: 8Rank: 8

    积分
    4335
    发表于 2021-3-6 17:15:36 | 显示全部楼层
    回复 支持 反对

    使用道具 举报

    该用户从未签到

    0

    主题

    2万

    帖子

    1万

    积分

    论坛元老

    Rank: 8Rank: 8

    积分
    19894
    发表于 2021-3-6 17:17:10 | 显示全部楼层
    楼主太厉害了!楼主,电影应该很好看我觉得蓝光电影下载真是个好地方!
    回复 支持 反对

    使用道具 举报

  • TA的每日心情
    开心
    2021-8-16 20:10
  • 签到天数: 14 天

    [LV.3]偶尔看看II

    1

    主题

    1905

    帖子

    2238

    积分

    金牌会员

    Rank: 6Rank: 6

    积分
    2238
    发表于 2021-3-6 17:18:06 | 显示全部楼层
    提示: 作者被禁止或删除 内容自动屏蔽
    回复 支持 反对

    使用道具 举报

    该用户从未签到

    0

    主题

    1402

    帖子

    808

    积分

    高级会员

    Rank: 4

    积分
    808
    发表于 2021-3-6 18:21:35 | 显示全部楼层

    是个好电影!必须要看的!多谢分享!
    回复 支持 反对

    使用道具 举报

    该用户从未签到

    0

    主题

    1864

    帖子

    1062

    积分

    金牌会员

    Rank: 6Rank: 6

    积分
    1062
    发表于 2021-3-6 21:18:36 | 显示全部楼层
    回复 支持 反对

    使用道具 举报

    该用户从未签到

    0

    主题

    207

    帖子

    40

    积分

    新手上路

    Rank: 1

    积分
    40
    发表于 2021-3-7 09:33:56 | 显示全部楼层
    回复 支持 反对

    使用道具 举报

    该用户从未签到

    0

    主题

    2万

    帖子

    1万

    积分

    论坛元老

    Rank: 8Rank: 8

    积分
    18633
    发表于 2021-3-7 14:05:44 | 显示全部楼层
    回复 支持 反对

    使用道具 举报

    懒得打字嘛,点击右侧快捷回复 【右侧内容,后台自定义】
    您需要登录后才可以回帖 登录 | 立即注册

    本版积分规则

    郑重声明,本站所有作品片源来自互联网公开渠道,均为网友上传交流学习,影视版权均归原电影公司所有,如有侵犯版权,请与 2322694662@qq.com 联系,我们将立即删除。

    小黑屋|手机版|Archiver|百度统计|投诉|蓝光电影下载

    GMT+8, 2021-11-29 11:00 , Processed in 0.142516 second(s), 24 queries , Gzip On, MemCached On.

    Powered by Discuz! X3.4

    © 2001-2013 Comsenz Inc.

    快速回复 返回顶部 返回列表