快捷导航
查看: 4222|回复: 9

[剧情] 关于我母亲的一切 All.About.My.Mother.1999.1080p.BluRay.x264-USURY 10.93GB

[复制链接]
  • TA的每日心情

    2022-11-2 18:54
  • 签到天数: 127 天

    [LV.7]常住居民III

    2480

    主题

    127

    回帖

    5644

    积分

    发布组

    积分
    5644
    发表于 2021-6-2 17:58:54 | 显示全部楼层 |阅读模式
    1. 帖子完整标题:关于我母亲的一切 All.About.My.Mother.1999.1080p.BluRay.x264-USURY 10.93GB
    复制代码
    关于我母亲的一切 All.About.My.Mother.1999.1080p.BluRay.x264-USURY 10.93GB-1.png


    译  名 关于我母亲的一切/All About My Mother/我的母亲(台)/论尽我阿妈(港)
    片  名 Todo sobre mi madre
    年  代 1999
    产  地 西班牙,法国
    类  别 剧情
    语  言 西班牙语,加泰罗尼亚语,英语
    上映日期 1999-04-08(西班牙首映) / 1999-04-16(西班牙) / 1999-05-15(戛纳电影节) / 1999-05-19(法国)
    IMDb评分  7.8/10 from 87093 users
    IMDb链接  https://www.imdb.com/title/tt0185125/
    豆瓣评分 8.5/10 from 49374 users
    豆瓣链接 https://movie.douban.com/subject/1291937/
    片  长 101分钟
    导  演 佩德罗·阿莫多瓦 Pedro Almodóvar
    编  剧 佩德罗·阿莫多瓦 Pedro Almodóvar
    主  演 塞西莉亚·罗特 Cecilia Roth
           玛丽萨·帕雷德斯 Marisa Paredes
           坎德拉·佩尼亚 Candela Pe?a
           安东尼亚·圣胡安 Antonia San Juan
           佩内洛普·克鲁兹 Penélope Cruz
           罗莎·玛丽亚·萨尔达 Rosa Maria Sardà
           费尔南多·费尔南·戈麦斯 Fernando Fernán Gómez
           托尼·坎托 Toni Cantó
           埃罗·阿索林 Eloy Azorín
           卡洛斯·洛萨诺 Carlos Lozano
           费尔南多·古林 Fernando Guillén
           曼努埃尔·莫龙 Manuel Morón
           乔斯·路易斯·托里霍 José Luis Torrijo
           胡安·乔斯·奥特圭 Juan José Otegui
           卡门·巴拉格 Carmen Balagué
           埃丝特·加西亚 Esther García
           阿古斯丁·阿莫多瓦 Agustín Almodóvar

    标  签 西班牙 | 女性 | 剧情 | 1999 | 文艺 | 人性 | 法国 | 女权

    简  介

      玛努埃拉(丝莉亚 洛芙 饰)的丈夫在儿子出生前就离开了妻子,玛努埃拉成为了单身妈妈,带着儿子埃斯特班来到马德里生活。儿子从不知道爸爸的事情,玛努埃拉只好对儿子说父亲已经过世。然而,儿子终究不相信。他在日记本里悄悄写下对父亲的想念。
      
      车祸来得那么突然,儿子被一辆迎面撞来的汽车夺走了生命。母亲悲伤不已,决定去找孩子的父亲洛拉,完成儿子心愿。然而她却得知,洛拉已经换装成女人,当了妓女,而且染上了艾滋病。更不幸的是,修女罗萨(佩内洛普 饰)怀上了洛拉的孩子。玛努埃拉留在罗萨身边照顾她,罗萨诞下的婴儿也取自己儿子埃斯特班的名字,苦难的日子终于有了希望--这个新生儿竟然逃过了艾滋的噩运。

    获奖情况

      第72届奥斯卡金像奖 ?(2000)
      最佳外语片
      
      第52届戛纳电影节 ?(1999)
      主竞赛单元金棕榈奖(提名) 佩德罗·阿莫多瓦
      主竞赛单元最佳导演 佩德罗·阿莫多瓦
      天主教人道精神奖 佩德罗·阿莫多瓦
      
      第57届金球奖 ?(2000)
      电影类最佳外语片
      
      第53届英国电影学院奖 ?(2000)
      电影奖最佳导演 佩德罗·阿莫多瓦
      电影奖最佳原创剧本(提名) 佩德罗·阿莫多瓦
      电影奖最佳非英语片 阿古斯丁·阿莫多瓦?/?佩德罗·阿莫多瓦
    1. Video
    2. ID                                       : 1
    3. Format                                   : AVC
    4. Format/Info                              : Advanced Video Codec
    5. Format profile                           : High@L4
    6. Format settings                          : CABAC / 5 Ref Frames
    7. Format settings, CABAC                   : Yes
    8. Format settings, Reference frames        : 5 frames
    9. Codec ID                                 : V_MPEG4/ISO/AVC
    10. Duration                                 : 1 h 41 min
    11. Bit rate                                 : 13.9 Mb/s
    12. Width                                    : 1 920 pixels
    13. Height                                   : 824 pixels
    14. Display aspect ratio                     : 2.35:1
    15. Frame rate mode                          : Constant
    16. Frame rate                               : 23.976 (24000/1001/189150) FPS
    17. Color space                              : YUV
    18. Chroma subsampling                       : 4:2:0
    19. Bit depth                                : 8 bits
    20. Scan type                                : Progressive
    21. Bits/(Pixel*Frame)                       : 0.366
    22. Stream size                              : 9.85 GiB (90%)
    23. Writing library                          : x264 core 157 r2969 d4099dd
    24. Encoding settings                        : cabac=1 / ref=5 / deblock=1:-3:-3 / analyse=0x3:0x133 / me=umh / subme=9 / psy=1 / psy_rd=1.00:0.00 / mixed_ref=1 / me_range=16 / chroma_me=1 / trellis=2 / 8x8dct=1 / cqm=0 / deadzone=21,11 / fast_pskip=0 / chroma_qp_offset=-2 / threads=18 / lookahead_threads=1 / sliced_threads=0 / nr=0 / decimate=1 / interlaced=0 / bluray_compat=0 / constrained_intra=0 / bframes=3 / b_pyramid=2 / b_adapt=1 / b_bias=0 / direct=3 / weightb=1 / open_gop=0 / weightp=2 / keyint=240 / keyint_min=24 / scenecut=40 / intra_refresh=0 / rc_lookahead=50 / rc=2pass / mbtree=1 / bitrate=13882 / ratetol=1.0 / qcomp=0.60 / qpmin=0 / qpmax=69 / qpstep=4 / cplxblur=20.0 / qblur=0.5 / ip_ratio=1.40 / aq=1:1.00
    25. Language                                 : English
    26. Default                                  : Yes
    27. Forced                                   : No

    28. Audio
    29. ID                                       : 2
    30. Format                                   : DTS
    31. Format/Info                              : Digital Theater Systems
    32. Codec ID                                 : A_DTS
    33. Duration                                 : 1 h 41 min
    34. Bit rate mode                            : Constant
    35. Bit rate                                 : 1 509 kb/s
    36. Channel(s)                               : 6 channels
    37. Channel layout                           : C L R Ls Rs LFE
    38. Sampling rate                            : 48.0 kHz
    39. Frame rate                               : 93.750 FPS (512 SPF)
    40. Bit depth                                : 24 bits
    41. Compression mode                         : Lossy
    42. Stream size                              : 1.07 GiB (10%)
    43. Language                                 : Spanish
    44. Default                                  : Yes
    45. Forced                                   : No

    46. Text
    47. ID                                       : 3
    48. Format                                   : UTF-8
    49. Codec ID                                 : S_TEXT/UTF8
    50. Codec ID/Info                            : UTF-8 Plain Text
    51. Duration                                 : 1 h 34 min
    52. Bit rate                                 : 62 b/s
    53. Count of elements                        : 1355
    54. Stream size                              : 43.1 KiB (0%)
    55. Title                                    : English
    56. Language                                 : English
    57. Default                                  : Yes
    58. Forced                                   : Yes

    59. Menu
    60. 00:00:00.000                             : en:00:00:00.000
    61. 00:08:31.803                             : en:00:08:31.803
    62. 00:15:21.087                             : en:00:15:21.087
    63. 00:19:41.430                             : en:00:19:41.430
    64. 00:29:01.907                             : en:00:29:01.907
    65. 00:36:44.828                             : en:00:36:44.828
    66. 00:46:11.185                             : en:00:46:11.185
    67. 00:51:44.643                             : en:00:51:44.643
    68. 01:09:55.942                             : en:01:09:55.942
    69. 01:16:28.501                             : en:01:16:28.501
    70. 01:20:57.936                             : en:01:20:57.936
    71. 01:33:43.117                             : en:01:33:43.117
    复制代码

    关于我母亲的一切 All.About.My.Mother.1999.1080p.BluRay.x264-USURY 10.93GB-2.png
    本帖隐藏的内容需要VIP会员才可浏览,您需要升级才可浏览,点击这里升级VIP





    回复

    使用道具 举报

    该用户从未签到

    0

    主题

    2294

    回帖

    2327

    积分

    金牌会员

    Rank: 6Rank: 6

    积分
    2327
    发表于 2021-6-2 18:04:44 | 显示全部楼层
    感谢楼主的无私分享!要想蓝光高清电影网好 就靠你我他
    回复 支持 反对

    使用道具 举报

    该用户从未签到

    0

    主题

    821

    回帖

    835

    积分

    高级会员

    Rank: 4

    积分
    835
    发表于 2021-6-3 11:36:56 | 显示全部楼层
    楼主太厉害了!楼主,电影应该很好看我觉得蓝光电影下载真是个好地方!
    回复 支持 反对

    使用道具 举报

    该用户从未签到

    0

    主题

    6372

    回帖

    6921

    积分

    论坛元老

    Rank: 8Rank: 8

    积分
    6921
    发表于 2021-6-4 11:46:52 | 显示全部楼层
    回复 支持 反对

    使用道具 举报

    该用户从未签到

    0

    主题

    1723

    回帖

    1745

    积分

    金牌会员

    Rank: 6Rank: 6

    积分
    1745
    发表于 2021-6-8 12:40:11 | 显示全部楼层

    非常精彩的电影,下来收藏,感谢楼主
    回复 支持 反对

    使用道具 举报

  • TA的每日心情
    慵懒
    2022-9-15 21:40
  • 签到天数: 1 天

    [LV.1]初来乍到

    0

    主题

    2万

    回帖

    2万

    积分

    论坛元老

    Rank: 8Rank: 8

    积分
    29203
    发表于 2021-6-8 12:51:47 | 显示全部楼层
    回复 支持 反对

    使用道具 举报

    该用户从未签到

    0

    主题

    991

    回帖

    1159

    积分

    金牌会员

    Rank: 6Rank: 6

    积分
    1159
    发表于 2021-6-11 09:18:38 | 显示全部楼层
    回复 支持 反对

    使用道具 举报

    该用户从未签到

    0

    主题

    1409

    回帖

    1480

    积分

    金牌会员

    Rank: 6Rank: 6

    积分
    1480
    发表于 2021-6-12 06:33:40 | 显示全部楼层
    回复 支持 反对

    使用道具 举报

  • TA的每日心情
    慵懒
    2022-9-15 21:40
  • 签到天数: 1 天

    [LV.1]初来乍到

    0

    主题

    2万

    回帖

    2万

    积分

    论坛元老

    Rank: 8Rank: 8

    积分
    29203
    发表于 2021-6-12 07:59:06 | 显示全部楼层
    回复 支持 反对

    使用道具 举报

    该用户从未签到

    0

    主题

    4044

    回帖

    4468

    积分

    论坛元老

    Rank: 8Rank: 8

    积分
    4468
    发表于 2021-6-13 19:36:11 | 显示全部楼层
    回复 支持 反对

    使用道具 举报

    懒得打字嘛,点击右侧快捷回复 【右侧内容,后台自定义】
    您需要登录后才可以回帖 登录 | 立即注册

    本版积分规则

    郑重声明,本站所有作品片源来自互联网公开渠道,均为网友上传交流学习,影视版权均归原电影公司所有,如有侵犯版权,请与 2322694662@qq.com 联系,我们将立即删除。

    小黑屋|手机版|Archiver|投诉|51la|蓝光电影下载

    返回顶部
    x

    客服微信扫码添加咨询

    GMT+8, 2024-6-16 04:22 , Processed in 0.133639 second(s), 39 queries , Gzip On.

    Powered by Discuz! X3.4

    © 2001-2013 Comsenz Inc.

    快速回复 返回顶部 返回列表