快捷导航
查看: 2348|回复: 10

[剧情] 告別往事/了斷一切 Goodbye.to.All.That.2014.LIMITED.1080p.BluRay.x264-USURY 6.56GB

[复制链接]
  • TA的每日心情

    2022-11-2 18:54
  • 签到天数: 127 天

    [LV.7]常住居民III

    2480

    主题

    2607

    帖子

    5598

    积分

    发布组

    积分
    5598
    发表于 2021-7-7 22:26:36 | 显示全部楼层 |阅读模式
    1. 帖子完整标题:告別往事/了斷一切 Goodbye.to.All.That.2014.LIMITED.1080p.BluRay.x264-USURY 6.56GB
    复制代码
    告別往事/了斷一切 Goodbye.to.All.That.2014.LIMITED.1080p.BluRay.x264-USURY 6.56GB-1.png


    译  名 告別往事/了斷一切
    片  名 Goodbye to All That
    年  代 2014
    产  地 美国
    类  别 剧情
    语  言 英语
    上映日期 
    IMDb评分  5.2/10 from 2223 users
    IMDb链接  https://www.imdb.com/title/tt2437548/
    豆瓣评分 5.2/10 from 89 users
    豆瓣链接 https://movie.douban.com/subject/20442068/
    片  长 86分钟
    主  演 安娜·坎普 Anna Camp
           海瑟·格拉汉姆 Heather Graham
           梅兰妮·林斯基 Melanie Lynskey
           阿什丽·欣肖 Ashley Hinshaw
           迈克尔·切鲁斯 Michael Chernus

    标  签 美国 | 爱情 | 剧情 | 情色 | 2014 | 美国电影 | 欧美电影 | Angus.MacLachlan

    简  介

      When his wife unexpectedly informs him that she wants a divorce, well-meaning but oblivious husband Otto Wall finds himself thrust back into bachelorhood, where he searches for the real thing amidst a string of one night stands.
    1. Video
    2. ID                                       : 1
    3. Format                                   : AVC
    4. Format/Info                              : Advanced Video Codec
    5. Format profile                           : High@L4
    6. Format settings                          : CABAC / 4 Ref Frames
    7. Format settings, CABAC                   : Yes
    8. Format settings, Reference frames        : 4 frames
    9. Codec ID                                 : V_MPEG4/ISO/AVC
    10. Duration                                 : 1 h 26 min
    11. Bit rate                                 : 9 368 kb/s
    12. Width                                    : 1 920 pixels
    13. Height                                   : 1 080 pixels
    14. Display aspect ratio                     : 16:9
    15. Frame rate mode                          : Constant
    16. Frame rate                               : 23.976 FPS
    17. Color space                              : YUV
    18. Chroma subsampling                       : 4:2:0
    19. Bit depth                                : 8 bits
    20. Scan type                                : Progressive
    21. Bits/(Pixel*Frame)                       : 0.188
    22. Stream size                              : 5.64 GiB (86%)
    23. Writing library                          : x264 core 148 r2638 7599210
    24. Encoding settings                        : cabac=1 / ref=4 / deblock=1:0:0 / analyse=0x3:0x133 / me=umh / subme=7 / psy=1 / psy_rd=1.00:0.00 / mixed_ref=1 / me_range=16 / chroma_me=1 / trellis=1 / 8x8dct=1 / cqm=0 / deadzone=21,11 / fast_pskip=0 / chroma_qp_offset=-2 / threads=18 / lookahead_threads=3 / sliced_threads=0 / nr=0 / decimate=1 / interlaced=0 / bluray_compat=0 / constrained_intra=0 / bframes=3 / b_pyramid=2 / b_adapt=2 / b_bias=0 / direct=3 / weightb=1 / open_gop=0 / weightp=2 / keyint=250 / keyint_min=23 / scenecut=40 / intra_refresh=0 / rc_lookahead=50 / rc=2pass / mbtree=1 / bitrate=9368 / ratetol=1.0 / qcomp=0.60 / qpmin=0 / qpmax=69 / qpstep=4 / cplxblur=20.0 / qblur=0.5 / ip_ratio=1.40 / aq=1:1.00
    25. Language                                 : English
    26. Default                                  : Yes
    27. Forced                                   : No

    28. Audio
    29. ID                                       : 2
    30. Format                                   : DTS
    31. Format/Info                              : Digital Theater Systems
    32. Codec ID                                 : A_DTS
    33. Duration                                 : 1 h 26 min
    34. Bit rate mode                            : Constant
    35. Bit rate                                 : 1 509 kb/s
    36. Channel(s)                               : 6 channels
    37. Channel layout                           : C L R Ls Rs LFE
    38. Sampling rate                            : 48.0 kHz
    39. Frame rate                               : 93.750 FPS (512 SPF)
    40. Bit depth                                : 24 bits
    41. Compression mode                         : Lossy
    42. Stream size                              : 932 MiB (14%)
    43. Language                                 : English
    44. Default                                  : Yes
    45. Forced                                   : No

    46. Menu
    47. 00:00:00.000                             : en:00:00:00.000
    48. 00:11:28.021                             : en:00:11:28.021
    49. 00:24:05.944                             : en:00:24:05.944
    50. 00:35:02.934                             : en:00:35:02.934
    51. 00:46:24.949                             : en:00:46:24.949
    52. 00:54:23.969                             : en:00:54:23.969
    53. 01:06:30.945                             : en:01:06:30.945
    54. 01:16:05.895                             : en:01:16:05.895
    55. 01:22:26.942                             : en:01:22:26.942
    复制代码

    本帖隐藏的内容需要VIP会员才可浏览,您需要升级才可浏览,点击这里升级VIP




    回复

    使用道具 举报

    该用户从未签到

    0

    主题

    1246

    帖子

    1146

    积分

    金牌会员

    Rank: 6Rank: 6

    积分
    1146
    发表于 2021-7-7 22:26:43 | 显示全部楼层

    是个好电影!必须要看的!多谢分享!

    点评

    QQ 1553075678=出-售 桑=拿=女 按=摩=女 模=特= 外=围=女=资=料 良=家 学=生=妹=信=息  发表于 2021-7-8 10:12
    回复 支持 反对

    使用道具 举报

  • TA的每日心情
    开心
    2021-8-16 20:10
  • 签到天数: 14 天

    [LV.3]偶尔看看II

    1

    主题

    1980

    帖子

    2354

    积分

    金牌会员

    Rank: 6Rank: 6

    积分
    2354
    发表于 2021-7-7 23:52:22 | 显示全部楼层
    提示: 作者被禁止或删除 内容自动屏蔽
    回复 支持 反对

    使用道具 举报

  • TA的每日心情
    无聊
    2022-11-7 13:33
  • 签到天数: 1 天

    [LV.1]初来乍到

    0

    主题

    7642

    帖子

    6300

    积分

    论坛元老

    Rank: 8Rank: 8

    积分
    6300
    发表于 2021-7-8 03:29:43 | 显示全部楼层
    回复 支持 反对

    使用道具 举报

    该用户从未签到

    0

    主题

    8080

    帖子

    7843

    积分

    论坛元老

    Rank: 8Rank: 8

    积分
    7843
    发表于 2021-7-8 10:49:04 | 显示全部楼层

    非常精彩的电影,下来收藏,感谢楼主
    回复 支持 反对

    使用道具 举报

    该用户从未签到

    0

    主题

    4997

    帖子

    4516

    积分

    论坛元老

    Rank: 8Rank: 8

    积分
    4516
    发表于 2021-7-10 13:46:41 | 显示全部楼层
    回复 支持 反对

    使用道具 举报

    该用户从未签到

    0

    主题

    3294

    帖子

    2961

    积分

    金牌会员

    Rank: 6Rank: 6

    积分
    2961
    发表于 2021-7-14 02:13:15 | 显示全部楼层
    回复 支持 反对

    使用道具 举报

    该用户从未签到

    0

    主题

    4997

    帖子

    4516

    积分

    论坛元老

    Rank: 8Rank: 8

    积分
    4516
    发表于 2021-7-16 05:23:48 | 显示全部楼层
    回复 支持 反对

    使用道具 举报

    该用户从未签到

    0

    主题

    1416

    帖子

    1285

    积分

    金牌会员

    Rank: 6Rank: 6

    积分
    1285
    发表于 2021-7-20 00:02:01 | 显示全部楼层
    楼主太厉害了!楼主,电影应该很好看我觉得蓝光电影下载真是个好地方!
    回复 支持 反对

    使用道具 举报

  • TA的每日心情
    慵懒
    2022-9-15 21:40
  • 签到天数: 1 天

    [LV.1]初来乍到

    0

    主题

    2万

    帖子

    2万

    积分

    论坛元老

    Rank: 8Rank: 8

    积分
    21425
    发表于 2021-7-25 18:51:02 | 显示全部楼层
    回复 支持 反对

    使用道具 举报

    懒得打字嘛,点击右侧快捷回复 【右侧内容,后台自定义】
    您需要登录后才可以回帖 登录 | 立即注册

    本版积分规则

    郑重声明,本站所有作品片源来自互联网公开渠道,均为网友上传交流学习,影视版权均归原电影公司所有,如有侵犯版权,请与 2322694662@qq.com 联系,我们将立即删除。

    小黑屋|手机版|Archiver|百度统计|投诉|蓝光电影下载

    GMT+8, 2022-12-8 14:44 , Processed in 0.149476 second(s), 30 queries , Gzip On, MemCached On.

    Powered by Discuz! X3.4

    © 2001-2013 Comsenz Inc.

    快速回复 返回顶部 返回列表