快捷导航
查看: 1821|回复: 7

[犯罪] 金钱世界/万恶金钱 All.the.Money.in.the.World.2017.1080p.BluRay.x264.DTS-HD.MA.5.1-FGT 10

[复制链接]
  • TA的每日心情

    2022-11-20 15:48
  • 签到天数: 138 天

    [LV.7]常住居民III

    2527

    主题

    140

    回帖

    6300

    积分

    发布组

    积分
    6300
    发表于 2021-10-27 15:13:31 | 显示全部楼层 |阅读模式
    1. 帖子完整标题:金钱世界/万恶金钱 All.the.Money.in.the.World.2017.1080p.BluRay.x264.DTS-HD.MA.5.1-FGT 10.72GB
    复制代码
    金钱世界/万恶金钱 All.the.Money.in.the.World.2017.1080p.BluRay.x264.DTS-HD.MA.5.1-FGT 10-1.png


    译  名 金钱世界/万恶金钱(港)/世上所有的财富
    片  名 All the Money in the World
    年  代 2017
    产  地 美国
    类  别 剧情 / 悬疑 / 犯罪
    语  言 英语
    上映日期 2017-12-25(美国) / 2018-03-02(中国大陆)
    IMDb评分  6.8/10 from 71401 users
    IMDb链接  https://www.imdb.com/title/tt5294550/
    豆瓣评分 7.0/10 from 39014 users
    豆瓣链接 https://movie.douban.com/subject/26995719/
    片  长 132分钟
    导  演 雷德利·斯科特 Ridley Scott
    编  剧 大卫·斯卡尔帕 David Scarpa / 约翰·皮尔逊 John Pearson
    主  演 米歇尔·威廉姆斯 Michelle Williams
           克里斯托弗·普卢默 Christopher Plummer
           马克·沃尔伯格 Mark Wahlberg
           查理·普拉默 Charlie Plummer
           罗曼·杜里斯 Romain Duris
           蒂莫西·赫顿 Timothy Hutton
           斯塔西·马汀 Stacy Martin
           查理·肖特韦尔 Charlie Shotwell
           安德鲁·巴肯 Andrew Buchan
           马克·莱昂纳蒂 Marco Leonardi
           朱塞佩·博尼法蒂 Giuseppe Bonifati
           尼可拉斯·瓦波里蒂斯 Nicolas Vaporidis
           安德里亚·皮耶迪蒙特·博迪尼 Andrea Piedimonte Bodini
           古列尔莫·法维拉 Guglielmo Favilla
           尼古拉·迪奇欧 Nicola Di Chio
           阿黛尔·蒂兰特 Adele Tirante
           亚历山德拉·罗卡 Alessandra Roca
           弗兰切斯卡·茵奥迪 Francesca Inaudi
           丹尼尔·高斯林 Daniel Gosling
           乔纳森·阿里斯 Jonathan Aris
           弗朗西斯科·迪·雷蒙多 Francesco Di Raimondo
           瑞纳萨林 Rainer Sellien
           加桑·马苏德 Ghassan Massoud
           洛伦佐·佩德罗蒂 Lorenzo Pedrotti
           奥利维亚·马佳纳尼 Olivia Magnani
           吉皮耶罗·朱迪卡 Giampiero Judica
           奥利维亚·格兰特 Olivia Grant
           朱利叶斯·贝斯 Giulio Base
           马里奥·欧普特 Mario Opinato
           卢卡·艾瓦伦内 Luca Avallone

    标  签 美国 | 犯罪 | 真实事件 | 剧情 | 人性 | 传记 | 2017 | 悬疑

    简  介

      电影《金钱世界》改编自一起曾轰动世界的豪门绑架事件:世界首富保罗·盖蒂(克里斯托弗·普卢默 饰)之孙遭遇黑帮绑架,绑匪向其母盖尔(米歇尔·威廉姆斯 饰)索要1700万美元赎金,已经与丈夫离婚的盖尔无力支付这笔高昂的赎金,只能向盖蒂家族求救,但富可敌国却无比吝啬的老盖蒂却拒绝为孙子(查理·普拉默 饰)支付赎金,拿不到钱的绑匪丧心病狂的割下了人质的耳朵邮寄给盖蒂家族,心碎的盖尔在前CIA特工弗莱彻·蔡斯(马克·沃尔伯格 饰)的协助下,试图撼动这一僵局,解救自己的儿子……

    获奖情况

      第90届奥斯卡金像奖 ?(2018)
      最佳男配角(提名) 克里斯托弗·普卢默
      
      第75届金球奖 ?(2018)
      电影类最佳导演(提名) 雷德利·斯科特
      电影类剧情片最佳女主角(提名) 米歇尔·威廉姆斯
      电影类最佳男配角(提名) 克里斯托弗·普卢默
      
      第71届英国电影学院奖 ?(2018)
      电影奖最佳男配角(提名) 克里斯托弗·普卢默
    1. Video
    2. ID                                       : 1
    3. Format                                   : AVC
    4. Format/Info                              : Advanced Video Codec
    5. Format profile                           : High@L4
    6. Format settings                          : CABAC / 5 Ref Frames
    7. Format settings, CABAC                   : Yes
    8. Format settings, ReFrames                : 5 frames
    9. Codec ID                                 : V_MPEG4/ISO/AVC
    10. Duration                                 : 2 h 12 min
    11. Bit rate                                 : 9 106 kb/s
    12. Width                                    : 1 920 pixels
    13. Height                                   : 800 pixels
    14. Display aspect ratio                     : 2.40:1
    15. Frame rate mode                          : Constant
    16. Frame rate                               : 23.976 (24000/1001/189150) FPS
    17. Color space                              : YUV
    18. Chroma subsampling                       : 4:2:0
    19. Bit depth                                : 8 bits
    20. Scan type                                : Progressive
    21. Bits/(Pixel*Frame)                       : 0.247
    22. Stream size                              : 8.44 GiB (79%)
    23. Title                                    : All.the.Money.in.the.World.2017.1080p.BluRay.x264.DTS-HD.MA.5.1-FGT
    24. Writing library                          : x264 core 155 r2901 7d0ff22
    25. Encoding settings                        : cabac=1 / ref=5 / deblock=1:0:0 / analyse=0x3:0x133 / me=umh / subme=7 / psy=1 / psy_rd=1.00:0.00 / mixed_ref=1 / me_range=16 / chroma_me=1 / trellis=1 / 8x8dct=1 / cqm=0 / deadzone=21,11 / fast_pskip=0 / chroma_qp_offset=-2 / threads=24 / lookahead_threads=4 / sliced_threads=0 / nr=0 / decimate=1 / interlaced=0 / bluray_compat=0 / constrained_intra=0 / bframes=3 / b_pyramid=2 / b_adapt=1 / b_bias=0 / direct=1 / weightb=1 / open_gop=0 / weightp=2 / keyint=250 / keyint_min=23 / scenecut=40 / intra_refresh=0 / rc_lookahead=40 / rc=2pass / mbtree=1 / bitrate=9106 / ratetol=1.0 / qcomp=0.60 / qpmin=0 / qpmax=69 / qpstep=4 / cplxblur=20.0 / qblur=0.5 / ip_ratio=1.40 / aq=1:1.00
    26. Language                                 : English
    27. Default                                  : Yes
    28. Forced                                   : No

    29. Audio
    30. ID                                       : 2
    31. Format                                   : DTS
    32. Format/Info                              : Digital Theater Systems
    33. Format profile                           : MA / Core
    34. Codec ID                                 : A_DTS
    35. Duration                                 : 2 h 12 min
    36. Bit rate mode                            : Variable / Constant
    37. Bit rate                                 : 2 341 kb/s / 1 509 kb/s
    38. Channel(s)                               : 6 channels
    39. Channel positions                        : Front: L C R, Side: L R, LFE
    40. Sampling rate                            : 48.0 kHz
    41. Frame rate                               : 93.750 FPS (512 SPF)
    42. Bit depth                                : 16 bits
    43. Compression mode                         : Lossless / Lossy
    44. Stream size                              : 2.17 GiB (20%)
    45. Title                                    : All.the.Money.in.the.World.2017.1080p.BluRay.x264.DTS-HD.MA.5.1-FGT
    46. Language                                 : English
    47. Default                                  : Yes
    48. Forced                                   : No

    49. Text #1
    50. ID                                       : 3
    51. Format                                   : UTF-8
    52. Codec ID                                 : S_TEXT/UTF8
    53. Codec ID/Info                            : UTF-8 Plain Text
    54. Duration                                 : 2 h 4 min
    55. Bit rate                                 : 50 b/s
    56. Count of elements                        : 1530
    57. Stream size                              : 45.8 KiB (0%)
    58. Title                                    : English-SRT
    59. Language                                 : English
    60. Default                                  : Yes
    61. Forced                                   : No

    62. Text #2
    63. ID                                       : 4
    64. Format                                   : PGS
    65. Muxing mode                              : zlib
    66. Codec ID                                 : S_HDMV/PGS
    67. Codec ID/Info                            : Picture based subtitle format used on BDs/HD-DVDs
    68. Duration                                 : 2 h 6 min
    69. Bit rate                                 : 42.7 kb/s
    70. Count of elements                        : 3468
    71. Stream size                              : 38.6 MiB (0%)
    72. Title                                    : English-PGS
    73. Language                                 : English
    74. Default                                  : No
    75. Forced                                   : No

    76. Text #3
    77. ID                                       : 5
    78. Format                                   : PGS
    79. Muxing mode                              : zlib
    80. Codec ID                                 : S_HDMV/PGS
    81. Codec ID/Info                            : Picture based subtitle format used on BDs/HD-DVDs
    82. Duration                                 : 2 h 3 min
    83. Bit rate                                 : 38.0 kb/s
    84. Count of elements                        : 3008
    85. Stream size                              : 33.5 MiB (0%)
    86. Title                                    : English-SDH-PGS
    87. Language                                 : English
    88. Default                                  : No
    89. Forced                                   : No

    90. Text #4
    91. ID                                       : 6
    92. Format                                   : PGS
    93. Muxing mode                              : zlib
    94. Codec ID                                 : S_HDMV/PGS
    95. Codec ID/Info                            : Picture based subtitle format used on BDs/HD-DVDs
    96. Duration                                 : 2 h 6 min
    97. Bit rate                                 : 42.7 kb/s
    98. Count of elements                        : 3468
    99. Stream size                              : 38.5 MiB (0%)
    100. Title                                    : English-PGS
    101. Language                                 : English
    102. Default                                  : No
    103. Forced                                   : No

    104. Text #5
    105. ID                                       : 7
    106. Format                                   : PGS
    107. Muxing mode                              : zlib
    108. Codec ID                                 : S_HDMV/PGS
    109. Codec ID/Info                            : Picture based subtitle format used on BDs/HD-DVDs
    110. Duration                                 : 2 h 3 min
    111. Bit rate                                 : 38.0 kb/s
    112. Count of elements                        : 3008
    113. Stream size                              : 33.5 MiB (0%)
    114. Title                                    : English-SDH-PGS
    115. Language                                 : English
    116. Default                                  : No
    117. Forced                                   : No

    118. Text #6
    119. ID                                       : 8
    120. Format                                   : PGS
    121. Muxing mode                              : zlib
    122. Codec ID                                 : S_HDMV/PGS
    123. Codec ID/Info                            : Picture based subtitle format used on BDs/HD-DVDs
    124. Duration                                 : 2 h 9 min
    125. Bit rate                                 : 41.9 kb/s
    126. Count of elements                        : 3418
    127. Stream size                              : 38.8 MiB (0%)
    128. Title                                    : French-PGS
    129. Language                                 : French
    130. Default                                  : No
    131. Forced                                   : No

    132. Text #7
    133. ID                                       : 9
    134. Format                                   : PGS
    135. Muxing mode                              : zlib
    136. Codec ID                                 : S_HDMV/PGS
    137. Codec ID/Info                            : Picture based subtitle format used on BDs/HD-DVDs
    138. Duration                                 : 2 h 11 min
    139. Bit rate                                 : 34.9 kb/s
    140. Count of elements                        : 2892
    141. Stream size                              : 32.8 MiB (0%)
    142. Title                                    : Spanish-PGS
    143. Language                                 : Spanish
    144. Default                                  : No
    145. Forced                                   : No

    146. Menu
    147. 00:00:00.000                             : en:Chapter 01
    148. 00:10:55.321                             : en:Chapter 02
    149. 00:19:10.357                             : en:Chapter 03
    150. 00:30:35.500                             : en:Chapter 04
    151. 00:39:27.907                             : en:Chapter 05
    152. 00:48:36.330                             : en:Chapter 06
    153. 00:55:25.989                             : en:Chapter 07
    154. 01:05:59.163                             : en:Chapter 08
    155. 01:15:27.606                             : en:Chapter 09
    156. 01:24:42.160                             : en:Chapter 10
    157. 01:28:20.253                             : en:Chapter 11
    158. 01:34:54.980                             : en:Chapter 12
    159. 01:42:14.169                             : en:Chapter 13
    160. 01:48:11.485                             : en:Chapter 14
    161. 01:56:07.001                             : en:Chapter 15
    162. 02:03:08.130                             : en:Chapter 16
    复制代码

    金钱世界/万恶金钱 All.the.Money.in.the.World.2017.1080p.BluRay.x264.DTS-HD.MA.5.1-FGT 10-2.png
    金钱世界/万恶金钱 All.the.Money.in.the.World.2017.1080p.BluRay.x264.DTS-HD.MA.5.1-FGT 10-3.png
    金钱世界/万恶金钱 All.the.Money.in.the.World.2017.1080p.BluRay.x264.DTS-HD.MA.5.1-FGT 10-4.png
    本帖隐藏的内容需要VIP会员才可浏览,您需要升级才可浏览,点击这里升级VIP





    回复

    使用道具 举报

  • TA的每日心情
    开心
    2021-12-4 09:10
  • 签到天数: 384 天

    [LV.9]以坛为家II

    0

    主题

    760

    回帖

    3450

    积分

    论坛元老

    Rank: 8Rank: 8

    积分
    3450
    发表于 2021-10-27 16:58:35 | 显示全部楼层

    感谢楼主的无私分享!要想蓝光电影网好 就靠你我他
    回复 支持 反对

    使用道具 举报

    该用户从未签到

    0

    主题

    669

    回帖

    605

    积分

    高级会员

    Rank: 4

    积分
    605
    发表于 2021-10-27 16:58:36 | 显示全部楼层
    回复 支持 反对

    使用道具 举报

    该用户从未签到

    0

    主题

    996

    回帖

    465

    积分

    中级会员

    Rank: 3Rank: 3

    积分
    465
    发表于 2021-10-27 16:58:36 | 显示全部楼层
    回复 支持 反对

    使用道具 举报

  • TA的每日心情
    无聊
    2022-11-7 13:33
  • 签到天数: 1 天

    [LV.1]初来乍到

    0

    主题

    7670

    回帖

    6326

    积分

    论坛元老

    Rank: 8Rank: 8

    积分
    6326
    发表于 2021-10-29 14:13:45 | 显示全部楼层
    回复 支持 反对

    使用道具 举报

    该用户从未签到

    0

    主题

    1410

    回帖

    1324

    积分

    金牌会员

    Rank: 6Rank: 6

    积分
    1324
    发表于 2021-10-31 00:52:24 | 显示全部楼层
    楼主太厉害了!楼主,电影应该很好看我觉得蓝光电影下载真是个好地方!
    回复 支持 反对

    使用道具 举报

    该用户从未签到

    0

    主题

    5008

    回帖

    4516

    积分

    论坛元老

    Rank: 8Rank: 8

    积分
    4516
    发表于 2021-10-31 12:25:02 | 显示全部楼层
    回复 支持 反对

    使用道具 举报

  • TA的每日心情
    开心
    1 小时前
  • 签到天数: 165 天

    [LV.7]常住居民III

    1

    主题

    398

    回帖

    1627

    积分

    金牌会员

    Rank: 6Rank: 6

    积分
    1627
    发表于 4 天前 | 显示全部楼层

    既然你诚信诚意的推荐了,那我就勉为其难的看看吧!蓝光电影网不走平凡路。
    回复 支持 反对

    使用道具 举报

    懒得打字嘛,点击右侧快捷回复 【右侧内容,后台自定义】
    您需要登录后才可以回帖 登录 | 立即注册

    本版积分规则

    郑重声明,本站所有作品片源来自互联网公开渠道,均为网友上传交流学习,影视版权均归原电影公司所有,如有侵犯版权,请与 2322694662@qq.com 联系,我们将立即删除。

    小黑屋|手机版|Archiver|百度统计|投诉|蓝光电影下载

    GMT+8, 2023-2-9 07:21 , Processed in 0.124455 second(s), 17 queries , Gzip On, MemCached On.

    Powered by Discuz! X3.4

    © 2001-2013 Comsenz Inc.

    快速回复 返回顶部 返回列表