快捷导航
查看: 1688|回复: 10

[爱情] 复仇/蝶恋花 Revenge.1990.DC.1080p.BluRay.x264.DTS-FGT 10.62GB

[复制链接]
  • TA的每日心情

    2022-11-20 15:48
  • 签到天数: 138 天

    [LV.7]常住居民III

    2527

    主题

    140

    回帖

    6366

    积分

    发布组

    积分
    6366
    发表于 2021-11-9 16:58:13 | 显示全部楼层 |阅读模式
    1. 帖子完整标题:复仇/蝶恋花 Revenge.1990.DC.1080p.BluRay.x264.DTS-FGT 10.62GB
    复制代码
    复仇/蝶恋花 Revenge.1990.DC.1080p.BluRay.x264.DTS-FGT 10.62GB-1.png


    译  名 复仇/蝶恋花
    片  名 Revenge
    年  代 1990
    产  地 美国,墨西哥
    类  别 剧情 / 爱情 / 惊悚 / 犯罪
    语  言 英语,西班牙语
    上映日期 1990-02-16
    IMDb评分  6.3/10 from 16326 users
    IMDb链接  https://www.imdb.com/title/tt0100485/
    豆瓣评分 6.6/10 from 810 users
    豆瓣链接 https://movie.douban.com/subject/1428112/
    片  长 124分钟
    导  演 托尼·斯科特 Tony Scott
    编  剧 杰弗里·艾伦·菲斯金 Jeffrey Alan Fiskin / 吉姆·哈里森 Jim Harrison
    主  演 凯文·科斯特纳 Kevin Costner
           安东尼·奎恩 Anthony Quinn
           玛德琳·斯托 Madeleine Stowe
           Julieta Egurrola
           Luis de Icaza
           乔·桑托斯 Joe Santos
           托马斯·米连 Tomas Milian
           米盖尔·弗尔 Miguel Ferrer
           约翰·雷吉扎莫 John Leguizamo
           Julián Pastor
           莎莉·柯克兰德 Sally Kirkland
           克劳迪奥·布鲁克 Claudio Brook
           休斯凯思琳 Kathleen Hughes
           杰昆·马丁内斯 Joaquín Martínez
           詹姆斯·盖蒙 James Gammon

    标  签 美国 | 爱情 | KevinCostner | 复仇 | 凯文?科斯特纳 | 1990 | 美国电影 | 托尼·斯科特

    简  介

      迈克尔(凯文.科斯特纳)从空军部队退役,在老朋友安东尼的豪宅内,与其妻子遭遇激情。面对老朋友及自己妻子的双重背叛,安东尼爆发了无可遏止的愤怒,开始了对通奸的情人无情野蛮的攻击……迈克尔死里逃生再找到安东尼报仇,此时,心爱的女人已被卖到妓院奄奄一息。
    1. Video
    2. ID                                       : 1
    3. Format                                   : AVC
    4. Format/Info                              : Advanced Video Codec
    5. Format profile                           : High@L4
    6. Format settings                          : CABAC / 8 Ref Frames
    7. Format settings, CABAC                   : Yes
    8. Format settings, Reference frames        : 8 frames
    9. Codec ID                                 : V_MPEG4/ISO/AVC
    10. Duration                                 : 1 h 40 min
    11. Bit rate                                 : 13.3 Mb/s
    12. Width                                    : 1 920 pixels
    13. Height                                   : 800 pixels
    14. Display aspect ratio                     : 2.40:1
    15. Frame rate mode                          : Constant
    16. Frame rate                               : 23.976 FPS
    17. Color space                              : YUV
    18. Chroma subsampling                       : 4:2:0
    19. Bit depth                                : 8 bits
    20. Scan type                                : Progressive
    21. Bits/(Pixel*Frame)                       : 0.362
    22. Stream size                              : 9.35 GiB (88%)
    23. Writing library                          : x264 core 57 svn-709C
    24. Encoding settings                        : cabac=1 / ref=5 / deblock=1:0:0 / analyse=0x3:0x133 / me=umh / fpel_cmp=sad / subme=7 / me-prepass=0 / brdo=1 / mixed_ref=1 / me_range=16 / chroma_me=1 / trellis=0 / 8x8dct=1 / cqm=2 / deadzone=8,4 / chroma_qp_offset=0 / threads=6 / nr=0 / decimate=0 / mbaff=0 / bframes=3 / b_pyramid=1 / b_adapt=1 / b_bias=0 / direct=3 / wpredb=1 / bime=1 / keyint=250 / keyint_min=25 / scenecut=40(pre) / rc=crf / crf=18.0 / rceq='blurCplx^(1-qComp)' / qcomp=0.60 / qpmin=10 / qpmax=51 / qpstep=4 / ip_ratio=1.40 / pb_ratio=1.30 / aq=1:0.5:12.0
    25. Language                                 : English
    26. Default                                  : Yes
    27. Forced                                   : No

    28. Audio
    29. ID                                       : 2
    30. Format                                   : DTS
    31. Format/Info                              : Digital Theater Systems
    32. Codec ID                                 : A_DTS
    33. Duration                                 : 1 h 40 min
    34. Bit rate mode                            : Constant
    35. Bit rate                                 : 1 510 kb/s
    36. Channel(s)                               : 6 channels
    37. Channel layout                           : C L R Ls Rs LFE
    38. Sampling rate                            : 48.0 kHz
    39. Frame rate                               : 93.750 FPS (512 SPF)
    40. Bit depth                                : 24 bits
    41. Compression mode                         : Lossy
    42. Stream size                              : 1.06 GiB (10%)
    43. Language                                 : English
    44. Default                                  : Yes
    45. Forced                                   : No

    46. Text
    47. ID                                       : 3
    48. Format                                   : UTF-8
    49. Codec ID                                 : S_TEXT/UTF8
    50. Codec ID/Info                            : UTF-8 Plain Text
    51. Language                                 : English
    52. Default                                  : Yes
    53. Forced                                   : No
    复制代码

    复仇/蝶恋花 Revenge.1990.DC.1080p.BluRay.x264.DTS-FGT 10.62GB-2.png
    复仇/蝶恋花 Revenge.1990.DC.1080p.BluRay.x264.DTS-FGT 10.62GB-3.png
    本帖隐藏的内容需要VIP会员才可浏览,您需要升级才可浏览,点击这里升级VIP





    回复

    使用道具 举报

  • TA的每日心情
    慵懒
    2022-9-15 21:40
  • 签到天数: 1 天

    [LV.1]初来乍到

    0

    主题

    2万

    回帖

    2万

    积分

    论坛元老

    Rank: 8Rank: 8

    积分
    29181
    发表于 2021-11-9 16:58:56 | 显示全部楼层
    回复 支持 反对

    使用道具 举报

  • TA的每日心情
    奋斗
    2023-7-9 14:14
  • 签到天数: 2 天

    [LV.1]初来乍到

    0

    主题

    1万

    回帖

    1万

    积分

    论坛元老

    Rank: 8Rank: 8

    积分
    11613
    发表于 2021-11-9 17:00:37 | 显示全部楼层

    非常精彩的电影,下来收藏,感谢楼主
    回复 支持 反对

    使用道具 举报

    该用户从未签到

    0

    主题

    6365

    回帖

    6911

    积分

    论坛元老

    Rank: 8Rank: 8

    积分
    6911
    发表于 2021-11-9 17:22:11 | 显示全部楼层

    是个好电影!必须要看的!多谢分享!
    回复 支持 反对

    使用道具 举报

    该用户从未签到

    0

    主题

    2447

    回帖

    2689

    积分

    金牌会员

    Rank: 6Rank: 6

    积分
    2689
    发表于 2021-11-9 17:23:25 | 显示全部楼层
    回复 支持 反对

    使用道具 举报

    该用户从未签到

    0

    主题

    2993

    回帖

    3062

    积分

    论坛元老

    Rank: 8Rank: 8

    积分
    3062
    发表于 2021-11-9 17:54:59 | 显示全部楼层
    回复 支持 反对

    使用道具 举报

    该用户从未签到

    0

    主题

    2993

    回帖

    3062

    积分

    论坛元老

    Rank: 8Rank: 8

    积分
    3062
    发表于 2021-11-9 20:41:35 | 显示全部楼层
    回复 支持 反对

    使用道具 举报

  • TA的每日心情
    开心
    3 小时前
  • 签到天数: 934 天

    [LV.10]以坛为家III

    11

    主题

    1747

    回帖

    7884

    积分

    论坛元老

    Rank: 8Rank: 8

    积分
    7884
    发表于 2021-11-10 00:51:43 | 显示全部楼层
    回复 支持 反对

    使用道具 举报

  • TA的每日心情

    2023-7-2 10:19
  • 签到天数: 253 天

    [LV.8]以坛为家I

    1

    主题

    424

    回帖

    2153

    积分

    金牌会员

    Rank: 6Rank: 6

    积分
    2153
    发表于 2021-11-10 10:06:10 | 显示全部楼层
    回复 支持 反对

    使用道具 举报

  • TA的每日心情
    开心
    2023-8-2 01:37
  • 签到天数: 6 天

    [LV.2]偶尔看看I

    1

    主题

    2671

    回帖

    2731

    积分

    金牌会员

    Rank: 6Rank: 6

    积分
    2731
    发表于 2023-7-10 09:46:08 | 显示全部楼层
    回复 支持 反对

    使用道具 举报

    懒得打字嘛,点击右侧快捷回复 【右侧内容,后台自定义】
    您需要登录后才可以回帖 登录 | 立即注册

    本版积分规则

    郑重声明,本站所有作品片源来自互联网公开渠道,均为网友上传交流学习,影视版权均归原电影公司所有,如有侵犯版权,请与 2322694662@qq.com 联系,我们将立即删除。

    小黑屋|手机版|Archiver|投诉|51la|蓝光电影下载

    GMT+8, 2024-4-23 04:11 , Processed in 0.143292 second(s), 39 queries , Gzip On.

    Powered by Discuz! X3.4

    © 2001-2013 Comsenz Inc.

    快速回复 返回顶部 返回列表