快捷导航
查看: 1631|回复: 7

[喜剧] 准许/人生许可 Permission.2017.1080p.BluRay.x264.DTS-HD.MA.5.1-FGT 9.96GB

[复制链接]
  • TA的每日心情

    2022-11-2 18:54
  • 签到天数: 127 天

    [LV.7]常住居民III

    2480

    主题

    127

    回帖

    5642

    积分

    发布组

    积分
    5642
    发表于 2021-11-19 10:40:53 | 显示全部楼层 |阅读模式
    1. 帖子完整标题:准许/人生许可 Permission.2017.1080p.BluRay.x264.DTS-HD.MA.5.1-FGT 9.96GB
    复制代码
    准许/人生许可 Permission.2017.1080p.BluRay.x264.DTS-HD.MA.5.1-FGT 9.96GB-1.png


    译  名 准许/人生许可(台)/开放性关系
    片  名 Permission
    年  代 2017
    产  地 美国
    类  别 剧情 / 喜剧 / 爱情
    语  言 英语
    上映日期 2017-04-22(翠贝卡电影节) / 2018-02-09(美国)
    IMDb评分  5.3/10 from 3737 users
    IMDb链接  https://www.imdb.com/title/tt5390066/
    豆瓣评分 6.1/10 from 2296 users
    豆瓣链接 https://movie.douban.com/subject/26718085/
    片  长 96分钟
    导  演 布莱恩·科拉诺 Brian Crano
    编  剧 布莱恩·科拉诺 Brian Crano
    主  演 丽贝卡·豪尔 Rebecca Hall
           丹·史蒂文斯 Dan Stevens
           杰森·苏戴奇斯 Jason Sudeikis
           吉娜·格申 Gina Gershon
           弗朗索瓦·阿诺德 Fran?ois Arnaud
           劳尔·卡斯提洛 Raúl Castillo
           大卫·约瑟夫·克雷格 David Joseph Craig
           阿克塞尔·B·克拉诺 Axel B. Crano
           布里奇特·埃弗里特 Bridget Everett
           米歇尔赫斯特 Michelle Hurst
           马克·伊瑟利斯 Marc Iserlis
           摩根·斯佩克特 Morgan Spector
           萨拉·斯蒂尔 Sarah Steele

    标  签 爱情 | 美国 | 人性 | 剧情 | 2017 | 美国电影 | 丹·史蒂文斯 | DanStevens

    简  介

      喜剧名为《准许》(Permission),讲述了一对情侣通过各自与别人睡觉来巩固他们俩的关系。
      
      《准许》由Brian Crano自编自导,影片的主人公安娜(丽贝卡·豪)和威尔(丹·史蒂文斯)是一对多年的情侣,他们是初恋情人、又都是对方的初吻和第一次,关系十分稳固,但又缺乏激情。
      
      安娜三十岁生日派对上,威尔准备求婚,但被他们喝醉的朋友打断,朋友醉醺醺的建议他们先别急着结婚、安定下来,而是去外面看看其他的“风景”。说者无意,听者有心,安娜真的心动了,于是和威尔商议开始“实验”:即在一夫一妻框架下,自由与其他人发生性关系。
    1. Video
    2. ID                                       : 1
    3. Format                                   : AVC
    4. Format/Info                              : Advanced Video Codec
    5. Format profile                           : High@L4
    6. Format settings                          : CABAC / 4 Ref Frames
    7. Format settings, CABAC                   : Yes
    8. Format settings, ReFrames                : 4 frames
    9. Codec ID                                 : V_MPEG4/ISO/AVC
    10. Duration                                 : 1 h 37 min
    11. Bit rate                                 : 11.5 Mb/s
    12. Width                                    : 1 920 pixels
    13. Height                                   : 800 pixels
    14. Display aspect ratio                     : 2.40:1
    15. Frame rate mode                          : Constant
    16. Frame rate                               : 23.976 (24000/1001/189150) FPS
    17. Color space                              : YUV
    18. Chroma subsampling                       : 4:2:0
    19. Bit depth                                : 8 bits
    20. Scan type                                : Progressive
    21. Bits/(Pixel*Frame)                       : 0.312
    22. Stream size                              : 7.81 GiB (78%)
    23. Title                                    : Permission.2017.1080p.BluRay.x264.DTS-HD.MA.5.1-FGT
    24. Writing library                          : x264 core 148 r2795M aaa9aa8
    25. Encoding settings                        : cabac=1 / ref=4 / deblock=1:-2:-2 / analyse=0x3:0x113 / me=umh / subme=9 / psy=1 / psy_rd=1.00:0.15 / mixed_ref=1 / me_range=16 / chroma_me=1 / trellis=2 / 8x8dct=1 / cqm=0 / deadzone=21,11 / fast_pskip=1 / chroma_qp_offset=-3 / threads=24 / lookahead_threads=3 / sliced_threads=0 / nr=0 / decimate=1 / interlaced=0 / bluray_compat=0 / constrained_intra=0 / bframes=3 / b_pyramid=2 / b_adapt=1 / b_bias=0 / direct=3 / weightb=1 / open_gop=0 / weightp=2 / keyint=250 / keyint_min=25 / scenecut=40 / intra_refresh=0 / rc_lookahead=50 / rc=2pass / mbtree=1 / bitrate=11500 / ratetol=1.0 / qcomp=0.60 / qpmin=0 / qpmax=69 / qpstep=4 / cplxblur=20.0 / qblur=0.5 / vbv_maxrate=31250 / vbv_bufsize=31250 / nal_hrd=none / filler=0 / ip_ratio=1.40 / aq=1:1.00
    26. Language                                 : English
    27. Default                                  : Yes
    28. Forced                                   : No

    29. Audio
    30. ID                                       : 2
    31. Format                                   : DTS XLL
    32. Format/Info                              : Digital Theater Systems
    33. Commercial name                          : DTS-HD Master Audio
    34. Codec ID                                 : A_DTS
    35. Duration                                 : 1 h 37 min
    36. Bit rate mode                            : Variable
    37. Bit rate                                 : 3 161 kb/s
    38. Channel(s)                               : 6 channels
    39. Channel layout                           : C L R Ls Rs LFE
    40. Sampling rate                            : 48.0 kHz
    41. Frame rate                               : 93.750 FPS (512 SPF)
    42. Bit depth                                : 24 bits
    43. Compression mode                         : Lossless
    44. Stream size                              : 2.14 GiB (22%)
    45. Title                                    : Permission.2017.1080p.BluRay.x264.DTS-HD.MA.5.1-FGT
    46. Language                                 : English
    47. Default                                  : Yes
    48. Forced                                   : No

    49. Menu
    50. 00:00:00.000                             : en:00:00:00.000
    51. 00:06:57.917                             : en:00:06:57.917
    52. 00:16:37.997                             : en:00:16:37.997
    53. 00:23:26.530                             : en:00:23:26.530
    54. 00:30:52.768                             : en:00:30:52.768
    55. 00:38:43.071                             : en:00:38:43.071
    56. 00:46:22.863                             : en:00:46:22.863
    57. 00:55:11.391                             : en:00:55:11.391
    58. 01:05:10.949                             : en:01:05:10.949
    59. 01:12:58.457                             : en:01:12:58.457
    60. 01:18:31.332                             : en:01:18:31.332
    61. 01:26:28.225                             : en:01:26:28.225
    复制代码

    准许/人生许可 Permission.2017.1080p.BluRay.x264.DTS-HD.MA.5.1-FGT 9.96GB-2.png
    准许/人生许可 Permission.2017.1080p.BluRay.x264.DTS-HD.MA.5.1-FGT 9.96GB-3.png
    本帖隐藏的内容需要VIP会员才可浏览,您需要升级才可浏览,点击这里升级VIP





    回复

    使用道具 举报

  • TA的每日心情
    奋斗
    2022-5-17 04:04
  • 签到天数: 1 天

    [LV.1]初来乍到

    0

    主题

    6717

    回帖

    6880

    积分

    论坛元老

    Rank: 8Rank: 8

    积分
    6880
    发表于 2021-11-19 10:41:21 | 显示全部楼层
    这个帖子不回对不起自己!我想我是一天也不能离开蓝光电影网
    回复 支持 反对

    使用道具 举报

  • TA的每日心情
    慵懒
    2022-9-15 21:40
  • 签到天数: 1 天

    [LV.1]初来乍到

    0

    主题

    2万

    回帖

    2万

    积分

    论坛元老

    Rank: 8Rank: 8

    积分
    29196
    发表于 2021-11-19 12:08:18 | 显示全部楼层
    回复 支持 反对

    使用道具 举报

  • TA的每日心情
    奋斗
    2023-7-9 14:14
  • 签到天数: 2 天

    [LV.1]初来乍到

    0

    主题

    1万

    回帖

    1万

    积分

    论坛元老

    Rank: 8Rank: 8

    积分
    11622
    发表于 2021-11-19 12:09:14 | 显示全部楼层
    回复 支持 反对

    使用道具 举报

    该用户从未签到

    0

    主题

    2042

    回帖

    2249

    积分

    金牌会员

    Rank: 6Rank: 6

    积分
    2249
    发表于 2021-11-20 21:02:58 | 显示全部楼层
    感谢楼主的无私分享!要想蓝光高清电影网好 就靠你我他
    回复 支持 反对

    使用道具 举报

  • TA的每日心情
    慵懒
    2022-9-15 21:40
  • 签到天数: 1 天

    [LV.1]初来乍到

    0

    主题

    2万

    回帖

    2万

    积分

    论坛元老

    Rank: 8Rank: 8

    积分
    29196
    发表于 2021-11-25 16:12:22 | 显示全部楼层

    是个好电影!必须要看的!多谢分享!
    回复 支持 反对

    使用道具 举报

    该用户从未签到

    0

    主题

    4038

    回帖

    4460

    积分

    论坛元老

    Rank: 8Rank: 8

    积分
    4460
    发表于 2021-12-3 23:25:58 | 显示全部楼层
    回复 支持 反对

    使用道具 举报

  • TA的每日心情
    慵懒
    2022-9-15 21:40
  • 签到天数: 1 天

    [LV.1]初来乍到

    0

    主题

    2万

    回帖

    2万

    积分

    论坛元老

    Rank: 8Rank: 8

    积分
    29196
    发表于 2021-12-4 00:42:52 | 显示全部楼层
    回复 支持 反对

    使用道具 举报

    懒得打字嘛,点击右侧快捷回复 【右侧内容,后台自定义】
    您需要登录后才可以回帖 登录 | 立即注册

    本版积分规则

    郑重声明,本站所有作品片源来自互联网公开渠道,均为网友上传交流学习,影视版权均归原电影公司所有,如有侵犯版权,请与 2322694662@qq.com 联系,我们将立即删除。

    小黑屋|手机版|Archiver|投诉|51la|蓝光电影下载

    返回顶部
    x

    客服微信扫码添加咨询

    GMT+8, 2024-5-20 19:59 , Processed in 0.119247 second(s), 39 queries , Gzip On.

    Powered by Discuz! X3.4

    © 2001-2013 Comsenz Inc.

    快速回复 返回顶部 返回列表