快捷导航
查看: 521|回复: 14

[喜剧] 黑彼得 Black.Peter.1964.1080p.BluRay.x264-USURY 8.75GB

[复制链接]
  • TA的每日心情
    慵懒
    2022-3-24 22:05
  • 签到天数: 137 天

    [LV.7]常住居民III

    2527

    主题

    2666

    帖子

    6137

    积分

    发布组

    积分
    6137
    发表于 2021-12-3 21:02:56 | 显示全部楼层 |阅读模式
    1. 帖子完整标题:黑彼得 Black.Peter.1964.1080p.BluRay.x264-USURY 8.75GB
    复制代码
    黑彼得 Black.Peter.1964.1080p.BluRay.x264-USURY 8.75GB-1.png


    译  名 黑彼得/Black Peter/Black Sheep/Peter and Pavla/彼德与柏芙拉(港)/黑彼德(台)
    片  名 ?erny Petr
    年  代 1964
    产  地 捷克斯洛伐克
    类  别 剧情 / 喜剧
    语  言 捷克语
    上映日期 1964-04-17(捷克斯洛伐克)
    IMDb评分  7.1/10 from 2309 users
    IMDb链接  https://www.imdb.com/title/tt0056919/
    豆瓣评分 7.3/10 from 336 users
    豆瓣链接 https://movie.douban.com/subject/1293940/
    片  长 85 分钟
    导  演 米洛斯·福尔曼 Milo? Forman
    编  剧 雅罗斯拉夫·帕布塞科 Jaroslav Papousek / 米洛斯·福尔曼 Milo? Forman
    主  演 简·沃斯特塞尔 Jan Vostrcil

    标  签 捷克 | 米洛斯·福尔曼 | 捷克电影 | MilosForman | 捷克斯洛伐克 | 1960s | Milos_Forman | 1964

    简  介

      米洛斯福曼一鸣惊人长片首作《黑彼得》(Black Peter),不仅荣膺卢卡诺影展首奖,更被视为捷克新浪潮开山作之一,电影以父亲的质问叨念,同时呈现男孩成长的迷茫无奈,暗喻共产社会的监视控制,《黑彼得》采非职业演员和即兴对话,于街头手持摄影,呈现一则轻松幽默的讽刺寓言。故事讲述在超商担任暑期实习生的16岁少年彼德,首日上工就撞见偷窃却不敢指认,反而只想和池畔的女孩调情,唠叨老爸和老板让人生难以过关。米洛斯福曼在《黑彼得》添加舞会桥段、喜剧的趣味实验,更捕捉到人物间的微妙互动,从而奠基日后大师印记。
    1. Video
    2. ID                                       : 1
    3. Format                                   : AVC
    4. Format/Info                              : Advanced Video Codec
    5. Format profile                           : High@L4
    6. Format settings                          : CABAC / 4 Ref Frames
    7. Format settings, CABAC                   : Yes
    8. Format settings, Reference frames        : 4 frames
    9. Codec ID                                 : V_MPEG4/ISO/AVC
    10. Duration                                 : 1 h 30 min
    11. Bit rate                                 : 13.1 Mb/s
    12. Width                                    : 1 488 pixels
    13. Height                                   : 1 080 pixels
    14. Display aspect ratio                     : 1.378
    15. Frame rate mode                          : Constant
    16. Frame rate                               : 24.000 FPS
    17. Color space                              : YUV
    18. Chroma subsampling                       : 4:2:0
    19. Bit depth                                : 8 bits
    20. Scan type                                : Progressive
    21. Bits/(Pixel*Frame)                       : 0.341
    22. Stream size                              : 8.26 GiB (94%)
    23. Writing library                          : x264 core 155 r2901 7d0ff22
    24. Encoding settings                        : cabac=1 / ref=4 / deblock=1:-3:-3 / analyse=0x3:0x133 / me=umh / subme=9 / psy=1 / psy_rd=1.00:0.00 / mixed_ref=1 / me_range=16 / chroma_me=1 / trellis=2 / 8x8dct=1 / cqm=0 / deadzone=21,11 / fast_pskip=0 / chroma_qp_offset=-2 / threads=34 / lookahead_threads=2 / sliced_threads=0 / nr=0 / decimate=1 / interlaced=0 / bluray_compat=0 / constrained_intra=0 / bframes=3 / b_pyramid=2 / b_adapt=1 / b_bias=0 / direct=3 / weightb=1 / open_gop=0 / weightp=2 / keyint=240 / keyint_min=24 / scenecut=40 / intra_refresh=0 / rc_lookahead=50 / rc=2pass / mbtree=1 / bitrate=13134 / ratetol=1.0 / qcomp=0.60 / qpmin=0 / qpmax=69 / qpstep=4 / cplxblur=20.0 / qblur=0.5 / ip_ratio=1.40 / aq=1:1.00
    25. Language                                 : English
    26. Default                                  : Yes
    27. Forced                                   : No

    28. Audio
    29. ID                                       : 2
    30. Format                                   : FLAC
    31. Format/Info                              : Free Lossless Audio Codec
    32. Codec ID                                 : A_FLAC
    33. Duration                                 : 1 h 30 min
    34. Bit rate mode                            : Variable
    35. Bit rate                                 : 777 kb/s
    36. Channel(s)                               : 2 channels
    37. Channel layout                           : L R
    38. Sampling rate                            : 48.0 kHz
    39. Frame rate                               : 11.719 FPS (4096 SPF)
    40. Bit depth                                : 24 bits
    41. Compression mode                         : Lossless
    42. Stream size                              : 500 MiB (6%)
    43. Writing library                          : libFLAC 1.2.1 (UTC 2007-09-17)
    44. Language                                 : Czech
    45. Default                                  : Yes
    46. Forced                                   : No

    47. Text
    48. ID                                       : 3
    49. Format                                   : UTF-8
    50. Codec ID                                 : S_TEXT/UTF8
    51. Codec ID/Info                            : UTF-8 Plain Text
    52. Duration                                 : 1 h 28 min
    53. Bit rate                                 : 41 b/s
    54. Count of elements                        : 860
    55. Stream size                              : 27.0 KiB (0%)
    56. Title                                    : English
    57. Language                                 : English
    58. Default                                  : Yes
    59. Forced                                   : Yes

    60. Menu
    61. 00:00:00.000                             : en:00:00:00.000
    62. 00:05:03.667                             : en:00:05:03.667
    63. 00:12:23.167                             : en:00:12:23.167
    64. 00:21:55.250                             : en:00:21:55.250
    65. 00:32:28.167                             : en:00:32:28.167
    66. 00:43:05.292                             : en:00:43:05.292
    67. 00:51:42.250                             : en:00:51:42.250
    68. 01:01:49.208                             : en:01:01:49.208
    69. 01:05:41.958                             : en:01:05:41.958
    70. 01:11:29.250                             : en:01:11:29.250
    71. 01:16:42.708                             : en:01:16:42.708
    72. 01:24:11.000                             : en:01:24:11.000
    复制代码

    黑彼得 Black.Peter.1964.1080p.BluRay.x264-USURY 8.75GB-2.png
    本帖隐藏的内容需要VIP会员才可浏览,您需要升级才可浏览,点击这里升级VIP





    回复

    使用道具 举报

    该用户从未签到

    0

    主题

    2719

    帖子

    2592

    积分

    金牌会员

    Rank: 6Rank: 6

    积分
    2592
    发表于 2021-12-3 23:01:54 | 显示全部楼层
    回复 支持 反对

    使用道具 举报

    该用户从未签到

    0

    主题

    2719

    帖子

    2592

    积分

    金牌会员

    Rank: 6Rank: 6

    积分
    2592
    发表于 2021-12-4 00:25:43 | 显示全部楼层

    是个好电影!必须要看的!多谢分享!
    回复 支持 反对

    使用道具 举报

    该用户从未签到

    0

    主题

    2万

    帖子

    2万

    积分

    论坛元老

    Rank: 8Rank: 8

    积分
    20972
    发表于 2021-12-4 08:21:14 | 显示全部楼层

    非常精彩的电影,下来收藏,感谢楼主
    回复 支持 反对

    使用道具 举报

    该用户从未签到

    0

    主题

    1230

    帖子

    1119

    积分

    金牌会员

    Rank: 6Rank: 6

    积分
    1119
    发表于 2021-12-4 20:40:46 | 显示全部楼层
    回复 支持 反对

    使用道具 举报

    该用户从未签到

    0

    主题

    2万

    帖子

    2万

    积分

    论坛元老

    Rank: 8Rank: 8

    积分
    20972
    发表于 2021-12-5 18:16:23 | 显示全部楼层
    回复 支持 反对

    使用道具 举报

  • TA的每日心情
    开心
    2022-3-30 10:31
  • 签到天数: 2 天

    [LV.1]初来乍到

    1

    主题

    12

    帖子

    41

    积分

    新手上路

    Rank: 1

    积分
    41
    发表于 2021-12-9 17:55:31 | 显示全部楼层
    楼主发贴辛苦了,谢谢楼主分享!我觉得蓝光电影网是注册对了!
    回复 支持 反对

    使用道具 举报

  • TA的每日心情
    开心
    2022-4-17 07:32
  • 签到天数: 40 天

    [LV.5]常住居民I

    0

    主题

    76

    帖子

    362

    积分

    中级会员

    Rank: 3Rank: 3

    积分
    362
    发表于 2022-2-20 09:00:18 | 显示全部楼层
    楼主发贴辛苦了,谢谢楼主分享!我觉得蓝光电影网是注册对了!
    回复 支持 反对

    使用道具 举报

  • TA的每日心情

    2 小时前
  • 签到天数: 199 天

    [LV.7]常住居民III

    1

    主题

    344

    帖子

    1728

    积分

    金牌会员

    Rank: 6Rank: 6

    积分
    1728
    发表于 2022-3-1 10:43:30 | 显示全部楼层
    回复 支持 反对

    使用道具 举报

  • TA的每日心情
    开心
    昨天 15:20
  • 签到天数: 401 天

    [LV.9]以坛为家II

    0

    主题

    421

    帖子

    2895

    积分

    金牌会员

    Rank: 6Rank: 6

    积分
    2895
    发表于 2022-4-4 20:05:40 | 显示全部楼层
    楼主发贴辛苦了,谢谢楼主分享!我觉得蓝光电影网是注册对了!
    回复 支持 反对

    使用道具 举报

    懒得打字嘛,点击右侧快捷回复 【右侧内容,后台自定义】
    您需要登录后才可以回帖 登录 | 立即注册

    本版积分规则

    郑重声明,本站所有作品片源来自互联网公开渠道,均为网友上传交流学习,影视版权均归原电影公司所有,如有侵犯版权,请与 2322694662@qq.com 联系,我们将立即删除。

    小黑屋|手机版|Archiver|百度统计|投诉|蓝光电影下载

    GMT+8, 2022-5-27 11:19 , Processed in 0.092484 second(s), 26 queries , Gzip On, MemCached On.

    Powered by Discuz! X3.4

    © 2001-2013 Comsenz Inc.

    快速回复 返回顶部 返回列表