快捷导航
查看: 380|回复: 14

[喜剧] 长江七号 CJ7.2008.CHINESE.1080p.BluRay.x264.DTS-FGT 8.92GB

[复制链接]
  • TA的每日心情
    开心
    2020-2-15 21:32
  • 签到天数: 240 天

    [LV.8]以坛为家I

    1万

    主题

    1万

    帖子

    6万

    积分

    管理员

    蓝光君

    Rank: 9Rank: 9Rank: 9

    积分
    67830

    活跃会员热心会员推广达人突出贡献优秀版主荣誉管理论坛元老

    QQ
    发表于 2019-9-3 21:51:59 | 显示全部楼层 |阅读模式

    长江七号 CJ7.2008.CHINESE.1080p.BluRay.x264.DTS-FGT 8.92GB-1.png

    译  名 CJ7 / Long River 7 / 长江7号
    片  名 长江七号
    年  代 2008
    产  地 中国大陆 / 中国香港
    类  别 喜剧 / 科幻
    语  言 英语 / 汉语普通话 / 粤语
    上映日期 2008-01-30(中国大陆) / 2008-01-31(中国香港)
    IMDb评分  6.4/10 from 13473 users
    IMDb链接  http://www.imdb.com/title/tt0940709
    豆瓣评分 6.7/10 from 267258 users
    豆瓣链接 https://movie.douban.com/subject/1961963/
    片  长 86分钟
    导  演 周星驰 Stephen Chow
    编  剧 周星驰 Stephen Chow / 谷德昭 Vincent Kok / 曾谨昌 Kan-Cheung Tsang / 邵丽琼 Sandy Shaw / 冯志强 Chi Keung Fung
    主  演 周星驰 Stephen Chow
           徐娇 Jiao Xu
           张雨绮 Kitty Zhang
           林子聪 Chi Chung Lam
           冯勉恒 Min Hun Fung
           姚文雪 Wenxue Yao
           黄蕾
           李尚正 Sheung-ching Lee
           韩永华 Yong Hua Han
           胡倩琳 Qianlin Hu


    标  签 周星驰 | 喜剧 | 香港 | 长江七号 | 香港电影 | 搞笑 | 电影 | 2008

    简  介  

      小狄(徐娇 饰)是一个在贵族学校念书的穷孩子。他诚实善良,却总是遭到富家子的欺负和嘲笑。小狄和爸爸(周星驰 饰)住在一所废弃的旧房子里,爸爸每天拼命的工作,就是为了让他念好书,将来出人头地。
      平日,小狄总是很乖,就算体育课因为没有运动鞋而被老师罚站,他也从不埋怨爸爸。可是这一次,为了一个大家都有的玩具,小狄跟爸爸发起脾气来。爸爸买不起,就在垃圾堆里捡了一个“球”给儿子玩。谁知,这个透明的小球却变成一只活泼可爱,拥有超能力的太空狗。小狄欣喜极若狂,给他取名叫“长江七号”。小狄梦想着用七仔的超能力考100分,却没想到七仔非但没有帮到他,却让他得了个零蛋。他偷偷修改了成绩单,跟爸爸说了一次谎。爸爸大怒,小狄离家出走,赌气要凭真本事考好成绩给爸爸看。谁知,正当小狄笑着,拿着成绩单的时候,工地发生事故,爸爸从楼上摔了下来……

    获奖情况  

      第45届台北金马影展(2008)
      金马奖 最佳视觉效果(提名) 罗伟豪 / 黄宏达 / 黄宏显

      第28届香港电影金像奖(2009)
      最佳电影(提名)
      最佳男配角(提名) 周星驰
      最佳新演员 徐娇
      最佳视觉效果(提名) 罗伟豪 / 黄宏达 / 黄宏显

      第29届大众电影百花奖(2008)
      最佳导演(提名) 周星驰
      最佳新人(提名) 徐娇

      第13届中国电影华表奖(2009)
      优秀合拍片奖(提名)

      第3届亚洲电影大奖(2009)
      最佳新演员(提名) 徐娇

      第9届华语电影传媒大奖(2009)
      最佳新演员(提名) 徐娇

      第15届北京大学生电影节(2008)
      最佳导演奖(提名) 周星驰
      最佳新人奖(提名) 徐娇
      最佳观赏效果奖(提名)
      评委会大奖(提名)
    Video
    ID                                       : 1
    Format                                   : AVC
    Format/Info                              : Advanced Video Codec
    Format profile                           : [email protected]
    Format settings                          : CABAC / 4 Ref Frames
    Format settings, CABAC                   : Yes
    Format settings, Reference frames        : 4 frames
    Codec ID                                 : V_MPEG4/ISO/AVC
    Duration                                 : 1 h 27 min
    Bit rate                                 : 11.5 Mb/s
    Width                                    : 1 918 pixels
    Height                                   : 800 pixels
    Display aspect ratio                     : 2.40:1
    Frame rate mode                          : Constant
    Frame rate                               : 23.976 (24000/1001) FPS
    Color space                              : YUV
    Chroma subsampling                       : 4:2:0
    Bit depth                                : 8 bits
    Scan type                                : Progressive
    Bits/(Pixel*Frame)                       : 0.313
    Stream size                              : 7.07 GiB (79%)
    Title                                    : CJ7.2008.CHINESE.1080p.BluRay.x264.DTS-FGT
    Writing library                          : x264 core 148 r2795M aaa9aa8
    Encoding settings                        : cabac=1 / ref=4 / deblock=1:-2:-2 / analyse=0x3:0x113 / me=umh / subme=9 / psy=1 / psy_rd=1.00:0.15 / mixed_ref=1 / me_range=16 / chroma_me=1 / trellis=2 / 8x8dct=1 / cqm=0 / deadzone=21,11 / fast_pskip=1 / chroma_qp_offset=-3 / threads=24 / lookahead_threads=3 / sliced_threads=0 / nr=0 / decimate=1 / interlaced=0 / bluray_compat=0 / constrained_intra=0 / bframes=3 / b_pyramid=2 / b_adapt=1 / b_bias=0 / direct=3 / weightb=1 / open_gop=0 / weightp=2 / keyint=250 / keyint_min=25 / scenecut=40 / intra_refresh=0 / rc_lookahead=50 / rc=2pass / mbtree=1 / bitrate=11500 / ratetol=1.0 / qcomp=0.60 / qpmin=0 / qpmax=69 / qpstep=4 / cplxblur=20.0 / qblur=0.5 / vbv_maxrate=31250 / vbv_bufsize=31250 / nal_hrd=none / filler=0 / ip_ratio=1.40 / aq=1:1.00
    Language                                 : English
    Default                                  : Yes
    Forced                                   : No

    Audio #1
    ID                                       : 2
    Format                                   : DTS
    Format/Info                              : Digital Theater Systems
    Codec ID                                 : A_DTS
    Duration                                 : 1 h 27 min
    Bit rate mode                            : Constant
    Bit rate                                 : 1 509 kb/s
    Channel(s)                               : 6 channels
    Channel layout                           : C L R Ls Rs LFE
    Sampling rate                            : 48.0 kHz
    Frame rate                               : 93.750 FPS (512 SPF)
    Bit depth                                : 16 bits
    Compression mode                         : Lossy
    Stream size                              : 949 MiB (10%)
    Title                                    : CJ7.2008.CHINESE.1080p.BluRay.x264.DTS-FGT
    Language                                 : Chinese
    Default                                  : Yes
    Forced                                   : No

    Audio #2
    ID                                       : 3
    Format                                   : DTS
    Format/Info                              : Digital Theater Systems
    Codec ID                                 : A_DTS
    Duration                                 : 1 h 27 min
    Bit rate mode                            : Constant
    Bit rate                                 : 1 509 kb/s
    Channel(s)                               : 6 channels
    Channel layout                           : C L R Ls Rs LFE
    Sampling rate                            : 48.0 kHz
    Frame rate                               : 93.750 FPS (512 SPF)
    Bit depth                                : 16 bits
    Compression mode                         : Lossy
    Stream size                              : 949 MiB (10%)
    Title                                    : CJ7.2008.CHINESE.1080p.BluRay.x264.DTS-FGT
    Language                                 : English
    Default                                  : No
    Forced                                   : No

    Text
    ID                                       : 4
    Format                                   : UTF-8
    Codec ID                                 : S_TEXT/UTF8
    Codec ID/Info                            : UTF-8 Plain Text
    Duration                                 : 1 h 21 min
    Bit rate                                 : 31 b/s
    Count of elements                        : 682
    Stream size                              : 18.9 KiB (0%)
    Language                                 : English
    Default                                  : Yes
    Forced                                   : No

    Menu
    00:00:00.000                             : en:Chapter 00
    00:04:30.895                             : en:Chapter 01
    00:12:20.906                             : en:Chapter 02
    00:19:03.267                             : en:Chapter 03
    00:24:32.220                             : en:Chapter 04
    00:28:49.602                             : en:Chapter 05
    00:32:59.477                             : en:Chapter 06
    00:35:58.156                             : en:Chapter 07
    00:42:31.632                             : en:Chapter 08
    00:49:42.521                             : en:Chapter 09
    00:52:04.162                             : en:Chapter 10
    00:58:19.829                             : en:Chapter 11
    01:04:16.394                             : en:Chapter 12
    01:10:04.450                             : en:Chapter 13
    01:15:42.788                             : en:Chapter 14
    01:20:10.222                             : en:Chapter 15
    长江七号 CJ7.2008.CHINESE.1080p.BluRay.x264.DTS-FGT 8.92GB-2.png 长江七号 CJ7.2008.CHINESE.1080p.BluRay.x264.DTS-FGT 8.92GB-3.png 长江七号 CJ7.2008.CHINESE.1080p.BluRay.x264.DTS-FGT 8.92GB-4.png

    游客,如果您要查看本帖隐藏内容请回复



    大中午的快困死蓝光君了
    回复

    使用道具 举报

    该用户从未签到

    0

    主题

    1195

    帖子

    1204

    积分

    金牌会员

    Rank: 6Rank: 6

    积分
    1204
    发表于 2019-9-4 04:09:36 | 显示全部楼层
    楼主太厉害了!楼主,电影应该很好看我觉得蓝光电影下载真是个好地方!
    回复 支持 反对

    使用道具 举报

    该用户从未签到

    0

    主题

    815

    帖子

    734

    积分

    高级会员

    Rank: 4

    积分
    734
    发表于 2019-9-13 05:03:35 | 显示全部楼层
    回复 支持 反对

    使用道具 举报

    该用户从未签到

    0

    主题

    6743

    帖子

    6746

    积分

    论坛元老

    Rank: 8Rank: 8

    积分
    6746
    发表于 2019-10-6 22:07:48 | 显示全部楼层
    回复 支持 反对

    使用道具 举报

    该用户从未签到

    0

    主题

    162

    帖子

    149

    积分

    注册会员

    Rank: 2

    积分
    149
    发表于 2019-11-4 02:08:05 | 显示全部楼层
    回复 支持 反对

    使用道具 举报

    该用户从未签到

    0

    主题

    1164

    帖子

    1014

    积分

    金牌会员

    Rank: 6Rank: 6

    积分
    1014
    发表于 2019-11-9 14:31:18 | 显示全部楼层
    这个帖子不回对不起自己!我想我是一天也不能离开蓝光电影网
    回复 支持 反对

    使用道具 举报

    该用户从未签到

    0

    主题

    1164

    帖子

    1014

    积分

    金牌会员

    Rank: 6Rank: 6

    积分
    1014
    发表于 2019-11-14 04:06:11 | 显示全部楼层

    是个好电影!必须要看的!多谢分享!
    回复 支持 反对

    使用道具 举报

    该用户从未签到

    0

    主题

    165

    帖子

    128

    积分

    注册会员

    Rank: 2

    积分
    128
    发表于 2019-11-15 09:07:35 | 显示全部楼层
    回复 支持 反对

    使用道具 举报

    该用户从未签到

    0

    主题

    1530

    帖子

    1541

    积分

    金牌会员

    Rank: 6Rank: 6

    积分
    1541
    发表于 2019-11-18 09:24:02 | 显示全部楼层

    非常精彩的电影,下来收藏,感谢楼主
    回复 支持 反对

    使用道具 举报

    该用户从未签到

    0

    主题

    794

    帖子

    665

    积分

    高级会员

    Rank: 4

    积分
    665
    发表于 2019-12-1 06:11:06 | 显示全部楼层
    回复 支持 反对

    使用道具 举报

    懒得打字嘛,点击右侧快捷回复 【右侧内容,后台自定义】
    您需要登录后才可以回帖 登录 | 立即注册

    本版积分规则

    郑重声明,本站所有作品片源来自互联网公开渠道,均为网友上传交流学习,影视版权均归原电影公司所有,如有侵犯版权,请与 2322694662@qq.com 联系,我们将立即删除。

    小黑屋|手机版|Archiver|百度统计|投诉|蓝光电影下载

    GMT+8, 2021-1-19 22:12 , Processed in 0.043944 second(s), 20 queries , Gzip On, MemCached On.

    Powered by Discuz! X3.4

    © 2001-2013 Comsenz Inc.

    快速回复 返回顶部 返回列表