快捷导航
查看: 1155|回复: 53

[科幻] 星际探索/星际任务 Ad.Astra.2019.1080p.BluRay.x264.TrueHD.7.1.Atmos-FGT 11.06GB

[复制链接]
  • TA的每日心情
    开心
    2020-2-15 21:32
  • 签到天数: 240 天

    [LV.8]以坛为家I

    1万

    主题

    1万

    帖子

    6万

    积分

    管理员

    蓝光君

    Rank: 9Rank: 9Rank: 9

    积分
    62365

    活跃会员热心会员推广达人突出贡献优秀版主荣誉管理论坛元老

    QQ
    发表于 2019-12-14 09:17:13 | 显示全部楼层 |阅读模式

    星际探索/星际任务 Ad.Astra.2019.1080p.BluRay.x264.TrueHD.7.1.Atmos-FGT 11.06GB-1.png

    译  名 星际探索 / 星际任务(港) / 星际探险 / 星际救援(台)
    片  名 Ad Astra
    年  代 2019
    产  地 美国
    类  别 科幻 / 悬疑 / 冒险 / 灾难
    语  言 英语
    上映日期 2019-08-29(威尼斯电影节) / 2019-09-20(美国) / 2019-12-06(中国大陆)
    IMDb评分  7.0/10 from 68398 users
    IMDb链接  https://www.imdb.com/title/tt2935510
    豆瓣评分 6.8/10 from 4215 users
    豆瓣链接 https://movie.douban.com/subject/24716039/
    片  长 124分钟
    导  演 詹姆士·格雷 James Gray
    编  剧 詹姆士·格雷 James Gray / 伊森·格罗斯 Ethan Gross
    主  演 布拉德·皮特 Brad Pitt
           汤米·李·琼斯 Tommy Lee Jones
           鲁丝·内伽 Ruth Negga
           唐纳德·萨瑟兰 Donald Sutherland
           丽芙·泰勒 Liv Tyler
           肖恩·布莱克默 Sean Blakemore
           约翰·芬 John Finn
           杰米·肯尼迪 Jamie Kennedy
           格雷格·布瑞克 Greg Bryk
           吉米·希尔兹 Kimmy Shields
           丽莎·盖伊·汉密尔顿 Lisa Gay Hamilton
           劳恩·迪恩 Loren Dean
           约翰·奥提兹 John Ortiz
           金伯莉·伊丽丝 Kimberly Elise
           丹尼尔·萨乌利 Daniel Sauli
           安妮·麦克代尼尔斯 Anne McDaniels
           艾莉森·瑞德 Alyson Reed
           唐尼·科沙瓦茨 Donnie Keshawarz
           马洛里露 Mallory Low
           希拉·M·洛克哈特 Sheila M. Lockhart


    标  签 科幻 | 太空 | 宇宙 | 美国 | 2019 | 冒险 | 惊悚 | 星际

    简  介  

      地球上接连出现神秘怪象,科学家发现某种失控的反物质反应正在威胁整个太阳系,人类生存极度堪忧……地球生死攸关之际,天才航天工程师罗伊(布拉德·皮特 饰)被派往外太空,试图揭开谜团拯救人类。这是一场横跨地球、月球、火星、海王星,穿越整个太阳系的硬核冒险,一路危机重重险象环生,罗伊直面爆炸、陨石、月球飙车枪战、神秘生物等意想不到的考验,还找回了失联20年的父亲!当年罗伊的父亲(汤米·李·琼斯 饰)离开地球探寻外星智慧生物,结果任务失败,消失在茫茫宇宙之中。如今父子重逢,罗伊在太空深处发现了不为人知的秘密,渐渐触达所有事件的终极真相……

    获奖情况  

      第76届威尼斯电影节(2019)
      主竞赛单元 金狮奖 (提名) 詹姆斯·格雷
    1. Video
    2. ID                                       : 1
    3. Format                                   : AVC
    4. Format/Info                              : Advanced Video Codec
    5. Format profile                           : High@L4
    6. Format settings                          : CABAC / 5 Ref Frames
    7. Format settings, CABAC                   : Yes
    8. Format settings, Reference frames        : 5 frames
    9. Codec ID                                 : V_MPEG4/ISO/AVC
    10. Duration                                 : 2 h 3 min
    11. Bit rate                                 : 8 654 kb/s
    12. Width                                    : 1 920 pixels
    13. Height                                   : 808 pixels
    14. Display aspect ratio                     : 2.40:1
    15. Frame rate mode                          : Constant
    16. Frame rate                               : 23.976 (24000/1001) FPS
    17. Color space                              : YUV
    18. Chroma subsampling                       : 4:2:0
    19. Bit depth                                : 8 bits
    20. Scan type                                : Progressive
    21. Bits/(Pixel*Frame)                       : 0.233
    22. Stream size                              : 7.43 GiB (67%)
    23. Title                                    : Ad.Astra.2019.1080p.BluRay.x264.TrueHD.7.1.Atmos-FGT
    24. Writing library                          : x264 core 157 r2969 d4099dd
    25. Encoding settings                        : cabac=1 / ref=5 / deblock=1:0:0 / analyse=0x3:0x113 / me=umh / subme=8 / psy=1 / psy_rd=1.00:0.00 / mixed_ref=1 / me_range=16 / chroma_me=1 / trellis=1 / 8x8dct=1 / cqm=0 / deadzone=21,11 / fast_pskip=1 / chroma_qp_offset=-2 / threads=16 / lookahead_threads=2 / sliced_threads=0 / nr=0 / decimate=1 / interlaced=0 / bluray_compat=0 / constrained_intra=0 / bframes=3 / b_pyramid=2 / b_adapt=2 / b_bias=0 / direct=3 / weightb=1 / open_gop=0 / weightp=2 / keyint=240 / keyint_min=23 / scenecut=40 / intra_refresh=0 / rc_lookahead=50 / rc=2pass / mbtree=1 / bitrate=8654 / ratetol=1.0 / qcomp=0.60 / qpmin=0 / qpmax=69 / qpstep=4 / cplxblur=20.0 / qblur=0.5 / ip_ratio=1.40 / aq=1:1.00
    26. Default                                  : Yes
    27. Forced                                   : No

    28. Audio #1
    29. ID                                       : 2
    30. Format                                   : MLP FBA 16-ch
    31. Format/Info                              : Meridian Lossless Packing FBA with 16-channel presentation
    32. Commercial name                          : Dolby TrueHD with Dolby Atmos
    33. Codec ID                                 : A_TRUEHD
    34. Duration                                 : 2 h 3 min
    35. Bit rate mode                            : Variable
    36. Bit rate                                 : 3 388 kb/s
    37. Maximum bit rate                         : 6 165 kb/s
    38. Channel(s)                               : 8 channels
    39. Channel layout                           : L R C LFE Ls Rs Lb Rb
    40. Sampling rate                            : 48.0 kHz
    41. Frame rate                               : 1 200.000 FPS (40 SPF)
    42. Compression mode                         : Lossless
    43. Stream size                              : 2.91 GiB (26%)
    44. Title                                    : Ad.Astra.2019.1080p.BluRay.x264.TrueHD.7.1.Atmos-FGT
    45. Language                                 : English
    46. Default                                  : Yes
    47. Forced                                   : No
    48. Number of dynamic objects                : 13
    49. Bed channel count                        : 1 channel
    50. Bed channel configuration                : LFE

    51. Audio #2
    52. ID                                       : 3
    53. Format                                   : AC-3
    54. Format/Info                              : Audio Coding 3
    55. Commercial name                          : Dolby Digital
    56. Codec ID                                 : A_AC3
    57. Duration                                 : 2 h 3 min
    58. Bit rate mode                            : Constant
    59. Bit rate                                 : 640 kb/s
    60. Channel(s)                               : 6 channels
    61. Channel layout                           : L R C LFE Ls Rs
    62. Sampling rate                            : 48.0 kHz
    63. Frame rate                               : 31.250 FPS (1536 SPF)
    64. Bit depth                                : 16 bits
    65. Compression mode                         : Lossy
    66. Stream size                              : 563 MiB (5%)
    67. Title                                    : Ad.Astra.2019.1080p.BluRay.x264.TrueHD.7.1.Atmos-FGT
    68. Language                                 : English
    69. Service kind                             : Complete Main
    70. Default                                  : No
    71. Forced                                   : No

    72. Text #1
    73. ID                                       : 4
    74. Format                                   : UTF-8
    75. Codec ID                                 : S_TEXT/UTF8
    76. Codec ID/Info                            : UTF-8 Plain Text
    77. Duration                                 : 1 h 50 min
    78. Bit rate                                 : 50 b/s
    79. Count of elements                        : 1389
    80. Stream size                              : 41.1 KiB (0%)
    81. Title                                    : English-SRT
    82. Language                                 : English
    83. Default                                  : Yes
    84. Forced                                   : No

    85. Text #2
    86. ID                                       : 5
    87. Format                                   : PGS
    88. Muxing mode                              : zlib
    89. Codec ID                                 : S_HDMV/PGS
    90. Codec ID/Info                            : Picture based subtitle format used on BDs/HD-DVDs
    91. Duration                                 : 1 h 50 min
    92. Bit rate                                 : 36.0 kb/s
    93. Count of elements                        : 2786
    94. Stream size                              : 28.5 MiB (0%)
    95. Title                                    : English-PGS
    96. Language                                 : English
    97. Default                                  : No
    98. Forced                                   : No

    99. Text #3
    100. ID                                       : 6
    101. Format                                   : PGS
    102. Muxing mode                              : zlib
    103. Codec ID                                 : S_HDMV/PGS
    104. Codec ID/Info                            : Picture based subtitle format used on BDs/HD-DVDs
    105. Duration                                 : 2 h 2 min
    106. Bit rate                                 : 22.6 kb/s
    107. Count of elements                        : 2154
    108. Stream size                              : 19.7 MiB (0%)
    109. Title                                    : Czech-PGS
    110. Language                                 : Czech
    111. Default                                  : No
    112. Forced                                   : No

    113. Text #4
    114. ID                                       : 7
    115. Format                                   : PGS
    116. Muxing mode                              : zlib
    117. Codec ID                                 : S_HDMV/PGS
    118. Codec ID/Info                            : Picture based subtitle format used on BDs/HD-DVDs
    119. Duration                                 : 2 h 1 min
    120. Bit rate                                 : 22.8 kb/s
    121. Count of elements                        : 1706
    122. Stream size                              : 19.9 MiB (0%)
    123. Title                                    : Danish-PGS
    124. Language                                 : Danish
    125. Default                                  : No
    126. Forced                                   : No

    127. Text #5
    128. ID                                       : 8
    129. Format                                   : PGS
    130. Muxing mode                              : zlib
    131. Codec ID                                 : S_HDMV/PGS
    132. Codec ID/Info                            : Picture based subtitle format used on BDs/HD-DVDs
    133. Duration                                 : 2 h 1 min
    134. Bit rate                                 : 21.8 kb/s
    135. Count of elements                        : 1876
    136. Stream size                              : 19.0 MiB (0%)
    137. Title                                    : Dutch-PGS
    138. Language                                 : Dutch
    139. Default                                  : No
    140. Forced                                   : No

    141. Text #6
    142. ID                                       : 9
    143. Format                                   : PGS
    144. Muxing mode                              : zlib
    145. Codec ID                                 : S_HDMV/PGS
    146. Codec ID/Info                            : Picture based subtitle format used on BDs/HD-DVDs
    147. Duration                                 : 2 h 2 min
    148. Bit rate                                 : 24.2 kb/s
    149. Count of elements                        : 2156
    150. Stream size                              : 21.2 MiB (0%)
    151. Title                                    : Finnish-PGS
    152. Language                                 : Finnish
    153. Default                                  : No
    154. Forced                                   : No

    155. Text #7
    156. ID                                       : 10
    157. Format                                   : PGS
    158. Muxing mode                              : zlib
    159. Codec ID                                 : S_HDMV/PGS
    160. Codec ID/Info                            : Picture based subtitle format used on BDs/HD-DVDs
    161. Duration                                 : 2 h 2 min
    162. Bit rate                                 : 23.9 kb/s
    163. Count of elements                        : 2264
    164. Stream size                              : 20.9 MiB (0%)
    165. Title                                    : French-PGS
    166. Language                                 : French
    167. Default                                  : No
    168. Forced                                   : No

    169. Text #8
    170. ID                                       : 11
    171. Format                                   : PGS
    172. Muxing mode                              : zlib
    173. Codec ID                                 : S_HDMV/PGS
    174. Codec ID/Info                            : Picture based subtitle format used on BDs/HD-DVDs
    175. Duration                                 : 2 h 1 min
    176. Bit rate                                 : 28.5 kb/s
    177. Count of elements                        : 2298
    178. Stream size                              : 24.8 MiB (0%)
    179. Title                                    : German-PGS
    180. Language                                 : German
    181. Default                                  : No
    182. Forced                                   : No

    183. Text #9
    184. ID                                       : 12
    185. Format                                   : PGS
    186. Muxing mode                              : zlib
    187. Codec ID                                 : S_HDMV/PGS
    188. Codec ID/Info                            : Picture based subtitle format used on BDs/HD-DVDs
    189. Duration                                 : 2 h 2 min
    190. Bit rate                                 : 26.5 kb/s
    191. Count of elements                        : 2148
    192. Stream size                              : 23.2 MiB (0%)
    193. Title                                    : Hungarian-PGS
    194. Language                                 : Hungarian
    195. Default                                  : No
    196. Forced                                   : No

    197. Text #10
    198. ID                                       : 13
    199. Format                                   : PGS
    200. Muxing mode                              : zlib
    201. Codec ID                                 : S_HDMV/PGS
    202. Codec ID/Info                            : Picture based subtitle format used on BDs/HD-DVDs
    203. Duration                                 : 2 h 2 min
    204. Bit rate                                 : 26.6 kb/s
    205. Count of elements                        : 2146
    206. Stream size                              : 23.3 MiB (0%)
    207. Title                                    : Italian-PGS
    208. Language                                 : Italian
    209. Default                                  : No
    210. Forced                                   : No

    211. Text #11
    212. ID                                       : 14
    213. Format                                   : PGS
    214. Muxing mode                              : zlib
    215. Codec ID                                 : S_HDMV/PGS
    216. Codec ID/Info                            : Picture based subtitle format used on BDs/HD-DVDs
    217. Duration                                 : 2 h 2 min
    218. Bit rate                                 : 16.8 kb/s
    219. Count of elements                        : 2105
    220. Stream size                              : 14.7 MiB (0%)
    221. Title                                    : Japanese-PGS
    222. Language                                 : Japanese
    223. Default                                  : No
    224. Forced                                   : No

    225. Text #12
    226. ID                                       : 15
    227. Format                                   : PGS
    228. Muxing mode                              : zlib
    229. Codec ID                                 : S_HDMV/PGS
    230. Codec ID/Info                            : Picture based subtitle format used on BDs/HD-DVDs
    231. Duration                                 : 2 h 1 min
    232. Bit rate                                 : 16.5 kb/s
    233. Count of elements                        : 2152
    234. Stream size                              : 14.4 MiB (0%)
    235. Title                                    : Korean-PGS
    236. Language                                 : Korean
    237. Default                                  : No
    238. Forced                                   : No

    239. Text #13
    240. ID                                       : 16
    241. Format                                   : PGS
    242. Muxing mode                              : zlib
    243. Codec ID                                 : S_HDMV/PGS
    244. Codec ID/Info                            : Picture based subtitle format used on BDs/HD-DVDs
    245. Duration                                 : 2 h 2 min
    246. Bit rate                                 : 25.6 kb/s
    247. Count of elements                        : 2154
    248. Stream size                              : 22.3 MiB (0%)
    249. Title                                    : Norwegian-PGS
    250. Language                                 : Norwegian
    251. Default                                  : No
    252. Forced                                   : No

    253. Text #14
    254. ID                                       : 17
    255. Format                                   : PGS
    256. Muxing mode                              : zlib
    257. Codec ID                                 : S_HDMV/PGS
    258. Codec ID/Info                            : Picture based subtitle format used on BDs/HD-DVDs
    259. Duration                                 : 2 h 2 min
    260. Bit rate                                 : 23.9 kb/s
    261. Count of elements                        : 2084
    262. Stream size                              : 20.9 MiB (0%)
    263. Title                                    : Polish-PGS
    264. Language                                 : Polish
    265. Default                                  : No
    266. Forced                                   : No

    267. Text #15
    268. ID                                       : 18
    269. Format                                   : PGS
    270. Muxing mode                              : zlib
    271. Codec ID                                 : S_HDMV/PGS
    272. Codec ID/Info                            : Picture based subtitle format used on BDs/HD-DVDs
    273. Duration                                 : 2 h 1 min
    274. Bit rate                                 : 25.7 kb/s
    275. Count of elements                        : 2186
    276. Stream size                              : 22.4 MiB (0%)
    277. Title                                    : Spanish-PGS
    278. Language                                 : Spanish
    279. Default                                  : No
    280. Forced                                   : No

    281. Text #16
    282. ID                                       : 19
    283. Format                                   : PGS
    284. Muxing mode                              : zlib
    285. Codec ID                                 : S_HDMV/PGS
    286. Codec ID/Info                            : Picture based subtitle format used on BDs/HD-DVDs
    287. Duration                                 : 2 h 2 min
    288. Bit rate                                 : 25.2 kb/s
    289. Count of elements                        : 2106
    290. Stream size                              : 22.0 MiB (0%)
    291. Title                                    : Spanish-PGS
    292. Language                                 : Spanish
    293. Default                                  : No
    294. Forced                                   : No

    295. Text #17
    296. ID                                       : 20
    297. Format                                   : PGS
    298. Muxing mode                              : zlib
    299. Codec ID                                 : S_HDMV/PGS
    300. Codec ID/Info                            : Picture based subtitle format used on BDs/HD-DVDs
    301. Duration                                 : 2 h 1 min
    302. Bit rate                                 : 25.3 kb/s
    303. Count of elements                        : 2146
    304. Stream size                              : 22.0 MiB (0%)
    305. Title                                    : Swedish-PGS
    306. Language                                 : Swedish
    307. Default                                  : No
    308. Forced                                   : No

    309. Menu
    310. 00:00:00.000                             : en:Chapter 01
    311. 00:04:22.679                             : en:Chapter 02
    312. 00:08:48.695                             : en:Chapter 03
    313. 00:16:25.776                             : en:Chapter 04
    314. 00:22:33.811                             : en:Chapter 05
    315. 00:30:08.515                             : en:Chapter 06
    316. 00:35:08.273                             : en:Chapter 07
    317. 00:40:33.348                             : en:Chapter 08
    318. 00:44:45.391                             : en:Chapter 09
    319. 00:48:56.809                             : en:Chapter 10
    320. 00:53:51.812                             : en:Chapter 11
    321. 00:56:43.775                             : en:Chapter 12
    322. 01:01:31.897                             : en:Chapter 13
    323. 01:07:23.873                             : en:Chapter 14
    324. 01:12:12.411                             : en:Chapter 15
    325. 01:16:59.114                             : en:Chapter 16
    326. 01:21:35.182                             : en:Chapter 17
    327. 01:24:42.661                             : en:Chapter 18
    328. 01:31:16.554                             : en:Chapter 19
    329. 01:36:27.031                             : en:Chapter 20
    330. 01:40:59.595                             : en:Chapter 21
    331. 01:46:26.589                             : en:Chapter 22
    332. 01:50:00.052                             : en:Chapter 23
    333. 01:53:17.791                             : en:Chapter 24
    复制代码

    星际探索/星际任务 Ad.Astra.2019.1080p.BluRay.x264.TrueHD.7.1.Atmos-FGT 11.06GB-2.png 星际探索/星际任务 Ad.Astra.2019.1080p.BluRay.x264.TrueHD.7.1.Atmos-FGT 11.06GB-3.png 星际探索/星际任务 Ad.Astra.2019.1080p.BluRay.x264.TrueHD.7.1.Atmos-FGT 11.06GB-4.png

    游客,如果您要查看本帖隐藏内容请回复




    大中午的快困死蓝光君了
    回复

    使用道具 举报

    该用户从未签到

    0

    主题

    640

    帖子

    578

    积分

    高级会员

    Rank: 4

    积分
    578
    发表于 2019-12-14 09:17:34 | 显示全部楼层
    回复 支持 反对

    使用道具 举报

    该用户从未签到

    0

    主题

    1万

    帖子

    1万

    积分

    论坛元老

    Rank: 8Rank: 8

    积分
    17189
    发表于 2019-12-14 14:09:17 | 显示全部楼层
    回复 支持 反对

    使用道具 举报

    该用户从未签到

    0

    主题

    1万

    帖子

    1万

    积分

    论坛元老

    Rank: 8Rank: 8

    积分
    11882
    发表于 2019-12-14 21:01:05 | 显示全部楼层
    回复 支持 反对

    使用道具 举报

    该用户从未签到

    0

    主题

    621

    帖子

    547

    积分

    高级会员

    Rank: 4

    积分
    547
    发表于 2019-12-15 19:44:54 | 显示全部楼层
    回复 支持 反对

    使用道具 举报

    该用户从未签到

    0

    主题

    7088

    帖子

    6931

    积分

    论坛元老

    Rank: 8Rank: 8

    积分
    6931
    发表于 2019-12-17 06:37:37 | 显示全部楼层
    回复 支持 反对

    使用道具 举报

  • TA的每日心情
    擦汗
    2020-1-31 23:58
  • 签到天数: 14 天

    [LV.3]偶尔看看II

    0

    主题

    22

    帖子

    104

    积分

    注册会员

    Rank: 2

    积分
    104
    发表于 2019-12-17 06:38:25 | 显示全部楼层
    回复 支持 反对

    使用道具 举报

    该用户从未签到

    0

    主题

    1万

    帖子

    1万

    积分

    论坛元老

    Rank: 8Rank: 8

    积分
    10785
    发表于 2019-12-17 06:38:25 | 显示全部楼层

    是个好电影!必须要看的!多谢分享!
    回复 支持 反对

    使用道具 举报

    该用户从未签到

    0

    主题

    643

    帖子

    574

    积分

    高级会员

    Rank: 4

    积分
    574
    发表于 2019-12-17 22:14:04 | 显示全部楼层
    回复 支持 反对

    使用道具 举报

  • TA的每日心情
    郁闷
    2019-12-21 17:09
  • 签到天数: 1 天

    [LV.1]初来乍到

    0

    主题

    8

    帖子

    18

    积分

    新手上路

    Rank: 1

    积分
    18
    发表于 2019-12-21 17:14:47 | 显示全部楼层
    回复 支持 反对

    使用道具 举报

    懒得打字嘛,点击右侧快捷回复 【右侧内容,后台自定义】
    您需要登录后才可以回帖 登录 | 立即注册

    本版积分规则

    郑重声明,本站所有作品片源来自互联网公开渠道,均为网友上传交流学习,影视版权均归原电影公司所有,如有侵犯版权,请与 2322694662@qq.com 联系,我们将立即删除。

    小黑屋|手机版|Archiver|百度统计|投诉|蓝光电影下载

    GMT+8, 2020-11-24 16:48 , Processed in 0.049201 second(s), 20 queries , Gzip On, MemCached On.

    Powered by Discuz! X3.4

    © 2001-2013 Comsenz Inc.

    快速回复 返回顶部 返回列表