快捷导航
查看: 471|回复: 42

[剧情] 小丑 Joker.2019.1080p.BluRay.x264.DTS-HD.MA.7.1-FGT 10.57GB

[复制链接]
  • TA的每日心情
    开心
    2020-2-15 21:32
  • 签到天数: 240 天

    [LV.8]以坛为家I

    1万

    主题

    1万

    帖子

    3万

    积分

    管理员

    蓝光君

    Rank: 9Rank: 9Rank: 9

    积分
    37086

    活跃会员热心会员推广达人突出贡献优秀版主荣誉管理论坛元老

    QQ
    发表于 2019-12-20 21:52:34 | 显示全部楼层 |阅读模式

    小丑 Joker.2019.1080p.BluRay.x264.DTS-HD.MA.7.1-FGT 10.57GB-1.png

    译  名 小丑 / Joker Origin Movie / Romeo / 小丑起源电影:罗密欧
    片  名 Joker
    年  代 2019
    产  地 美国
    类  别 剧情 / 惊悚 / 犯罪
    语  言 英语
    上映日期 2019-08-31(威尼斯电影节) / 2019-10-04(美国)
    IMDb评分  9.6/10 from 11147 users
    IMDb链接  http://www.imdb.com/title/tt7286456
    豆瓣评分 9.3/10 from 3694 users
    豆瓣链接 https://movie.douban.com/subject/27119724/
    片  长 122分钟
    导  演 托德·菲利普斯 Todd Phillips
    编  剧 托德·菲利普斯 Todd Phillips / 斯科特·西尔弗 Scott Silver
    主  演 杰昆·菲尼克斯 Joaquin Phoenix
           罗伯特·德尼罗 Robert De Niro
           马克·马龙 Marc Maron
           莎姬·贝兹 Zazie Beetz
           谢·惠根姆 Shea Whigham
           弗兰西丝·康罗伊 Frances Conroy
           布莱恩·考伦 Bryan Callen
           布莱恩·泰里·亨利 Brian Tyree Henry
           布莱特·卡伦 Brett Cullen
           道格拉斯·霍奇斯 Douglas Hodges
           格伦·弗莱施勒 Glenn Fleshler
           比尔·坎普 Bill Camp
           乔什·帕斯 Josh Pais
           但丁·佩雷拉-奥尔森 Dante Pereira-Olson
           玛丽·凯特·马拉特 Mary Kate Malat
           迈克尔·本茨 Michael Benz
           莎珑·华盛顿 Sharon Washington
           桑德拉·詹姆斯 Sondra James
           托尼·赫德 Tony Head
           曼德拉·贝拉米 Mandela Bellamy
           乔·奥克曼 Joe Ochman
           卡尔·伦德施泰特 Carl Lundstedt
           米克·奥罗克 Mick O'Rourke
           大卫·吉布森 David Gibson
           伊万·罗萨多 Evan Rosado
           安妮·比萨比亚 Annie Pisapia
           布莱斯·科里根 Blaise Corrigan
           乔恩·道格拉斯·雷尼 Jon Douglas Rainey
           艾恩斯利·丹恩 Aynsleigh Dann
           杰森·约翰·奇卡莱塞 Jason John Cicalese
           Jolie Chan
           Isabella Ferreira
           Gary Gulman


    标  签 小丑 | DC | 犯罪 | 杰昆菲尼克斯 | 美国 | 2019 | 超级英雄 | 蝙蝠侠

    简  介  

      电影《小丑》以同名DC漫画角色为基础,由华纳兄弟影业公司发行,计划于2019年10月4日上映。本片的故事将独立于DCEU之外,故事背景设置在20世纪80年代,讲述了一位生活陷入困境的脱口秀喜剧演员渐渐走向精神的崩溃,在哥谭市开始了疯狂的犯罪生涯,最终成为了蝙蝠侠的宿敌“小丑”的故事。
      本片由《宿醉》的导演托德菲利普斯执导,他与编剧斯科特西尔弗一起撰写了编剧。杰昆菲尼克斯本片中饰演主人公“小丑”,其他的主演包括罗伯特德尼罗、莎姬贝兹、马克马龙等。

    获奖情况  

      第76届威尼斯电影节(2019)
      主竞赛单元 金狮奖 托德·菲利普斯
    1. Video
    2. ID                                       : 1
    3. Format                                   : AVC
    4. Format/Info                              : Advanced Video Codec
    5. Format profile                           : High@L4
    6. Format settings                          : CABAC / 4 Ref Frames
    7. Format settings, CABAC                   : Yes
    8. Format settings, Reference frames        : 4 frames
    9. Codec ID                                 : V_MPEG4/ISO/AVC
    10. Duration                                 : 2 h 1 min
    11. Bit rate                                 : 8 344 kb/s
    12. Width                                    : 1 920 pixels
    13. Height                                   : 1 040 pixels
    14. Display aspect ratio                     : 1.85:1
    15. Frame rate mode                          : Constant
    16. Frame rate                               : 23.976 (24000/1001) FPS
    17. Color space                              : YUV
    18. Chroma subsampling                       : 4:2:0
    19. Bit depth                                : 8 bits
    20. Scan type                                : Progressive
    21. Bits/(Pixel*Frame)                       : 0.174
    22. Stream size                              : 7.10 GiB (67%)
    23. Title                                    : Joker.2019.1080p.BluRay.x264.DTS-HD.MA.7.1-FGT
    24. Writing library                          : x264 core 157 r2969 d4099dd
    25. Encoding settings                        : cabac=1 / ref=4 / deblock=1:0:0 / analyse=0x3:0x113 / me=umh / subme=8 / psy=1 / psy_rd=1.00:0.00 / mixed_ref=1 / me_range=16 / chroma_me=1 / trellis=1 / 8x8dct=1 / cqm=0 / deadzone=21,11 / fast_pskip=1 / chroma_qp_offset=-2 / threads=16 / lookahead_threads=2 / sliced_threads=0 / nr=0 / decimate=1 / interlaced=0 / bluray_compat=0 / constrained_intra=0 / bframes=3 / b_pyramid=2 / b_adapt=2 / b_bias=0 / direct=3 / weightb=1 / open_gop=0 / weightp=2 / keyint=240 / keyint_min=23 / scenecut=40 / intra_refresh=0 / rc_lookahead=50 / rc=2pass / mbtree=1 / bitrate=8344 / ratetol=1.0 / qcomp=0.60 / qpmin=0 / qpmax=69 / qpstep=4 / cplxblur=20.0 / qblur=0.5 / ip_ratio=1.40 / aq=1:1.00
    26. Language                                 : English
    27. Default                                  : Yes
    28. Forced                                   : No

    29. Audio
    30. ID                                       : 2
    31. Format                                   : DTS XLL
    32. Format/Info                              : Digital Theater Systems
    33. Commercial name                          : DTS-HD Master Audio
    34. Codec ID                                 : A_DTS
    35. Duration                                 : 2 h 1 min
    36. Bit rate mode                            : Variable
    37. Bit rate                                 : 4 065 kb/s
    38. Channel(s)                               : 8 channels
    39. Channel layout                           : C L R LFE Lb Rb Lss Rss
    40. Sampling rate                            : 48.0 kHz
    41. Frame rate                               : 93.750 FPS (512 SPF)
    42. Bit depth                                : 24 bits
    43. Compression mode                         : Lossless
    44. Stream size                              : 3.46 GiB (33%)
    45. Title                                    : Joker.2019.1080p.BluRay.x264.DTS-HD.MA.7.1-FGT
    46. Language                                 : English
    47. Default                                  : Yes
    48. Forced                                   : No

    49. Text #1
    50. ID                                       : 3
    51. Format                                   : UTF-8
    52. Codec ID                                 : S_TEXT/UTF8
    53. Codec ID/Info                            : UTF-8 Plain Text
    54. Duration                                 : 1 h 58 min
    55. Bit rate                                 : 45 b/s
    56. Count of elements                        : 1424
    57. Stream size                              : 39.0 KiB (0%)
    58. Title                                    : English-SRT
    59. Language                                 : English
    60. Default                                  : Yes
    61. Forced                                   : No

    62. Text #2
    63. ID                                       : 4
    64. Format                                   : UTF-8
    65. Codec ID                                 : S_TEXT/UTF8
    66. Codec ID/Info                            : UTF-8 Plain Text
    67. Duration                                 : 1 h 58 min
    68. Bit rate                                 : 55 b/s
    69. Count of elements                        : 1735
    70. Stream size                              : 47.9 KiB (0%)
    71. Title                                    : English-SDH-SRT
    72. Language                                 : English
    73. Default                                  : No
    74. Forced                                   : No

    75. Text #3
    76. ID                                       : 5
    77. Format                                   : PGS
    78. Muxing mode                              : zlib
    79. Codec ID                                 : S_HDMV/PGS
    80. Codec ID/Info                            : Picture based subtitle format used on BDs/HD-DVDs
    81. Duration                                 : 1 h 58 min
    82. Bit rate                                 : 35.8 kb/s
    83. Count of elements                        : 3480
    84. Stream size                              : 30.2 MiB (0%)
    85. Title                                    : English-PGS
    86. Language                                 : English
    87. Default                                  : No
    88. Forced                                   : No

    89. Menu
    90. 00:00:00.000                             : :Chapter 01
    91. 00:10:28.795                             : :Chapter 02
    92. 00:21:01.302                             : :Chapter 03
    93. 00:28:44.973                             : :Chapter 04
    94. 00:38:14.501                             : :Chapter 05
    95. 00:46:21.570                             : :Chapter 06
    96. 00:56:19.293                             : :Chapter 07
    97. 01:04:41.169                             : :Chapter 08
    98. 01:15:41.746                             : :Chapter 09
    99. 01:26:16.046                             : :Chapter 10
    100. 01:37:02.608                             : :Chapter 11
    101. 01:45:50.386                             : :Chapter 12
    102. 01:55:44.646                             : :Chapter 13
    复制代码

    小丑 Joker.2019.1080p.BluRay.x264.DTS-HD.MA.7.1-FGT 10.57GB-2.png 小丑 Joker.2019.1080p.BluRay.x264.DTS-HD.MA.7.1-FGT 10.57GB-3.png 小丑 Joker.2019.1080p.BluRay.x264.DTS-HD.MA.7.1-FGT 10.57GB-4.png
    游客,如果您要查看本帖隐藏内容请回复




    大中午的快困死蓝光君了
    回复

    使用道具 举报

    该用户从未签到

    0

    主题

    1万

    帖子

    1万

    积分

    论坛元老

    Rank: 8Rank: 8

    积分
    12133
    发表于 2019-12-20 21:52:53 | 显示全部楼层
    回复 支持 反对

    使用道具 举报

    该用户从未签到

    0

    主题

    1134

    帖子

    139

    积分

    注册会员

    Rank: 2

    积分
    139
    发表于 2019-12-21 00:19:53 | 显示全部楼层
    回复 支持 反对

    使用道具 举报

    该用户从未签到

    0

    主题

    1万

    帖子

    1万

    积分

    论坛元老

    Rank: 8Rank: 8

    积分
    11457
    发表于 2019-12-21 13:38:53 | 显示全部楼层
    回复 支持 反对

    使用道具 举报

    该用户从未签到

    0

    主题

    2527

    帖子

    2511

    积分

    金牌会员

    Rank: 6Rank: 6

    积分
    2511
    发表于 2019-12-21 14:24:45 | 显示全部楼层
    楼主太厉害了!楼主,电影应该很好看我觉得蓝光电影下载真是个好地方!
    回复 支持 反对

    使用道具 举报

    该用户从未签到

    0

    主题

    545

    帖子

    26

    积分

    新手上路

    Rank: 1

    积分
    26
    发表于 2019-12-21 14:38:54 | 显示全部楼层
    回复 支持 反对

    使用道具 举报

    该用户从未签到

    0

    主题

    1万

    帖子

    1万

    积分

    论坛元老

    Rank: 8Rank: 8

    积分
    12133
    发表于 2019-12-21 22:41:56 | 显示全部楼层
    回复 支持 反对

    使用道具 举报

  • TA的每日心情
    开心
    2019-12-23 03:12
  • 签到天数: 1 天

    [LV.1]初来乍到

    1

    主题

    2

    帖子

    15

    积分

    新手上路

    Rank: 1

    积分
    15
    发表于 2019-12-23 03:15:08 | 显示全部楼层
    回复 支持 反对

    使用道具 举报

    该用户从未签到

    0

    主题

    1万

    帖子

    1万

    积分

    论坛元老

    Rank: 8Rank: 8

    积分
    18929
    发表于 2019-12-23 03:15:09 | 显示全部楼层
    这个帖子不回对不起自己!我想我是一天也不能离开蓝光电影网
    回复 支持 反对

    使用道具 举报

    该用户从未签到

    0

    主题

    1532

    帖子

    22

    积分

    新手上路

    Rank: 1

    积分
    22
    发表于 2019-12-23 03:15:09 | 显示全部楼层
    回复 支持 反对

    使用道具 举报

    懒得打字嘛,点击右侧快捷回复 【右侧内容,后台自定义】
    您需要登录后才可以回帖 登录 | 立即注册

    本版积分规则

    郑重声明,本站所有作品片源来自互联网公开渠道,均为网友上传交流学习,影视版权均归原电影公司所有,如有侵犯版权,请与 2322694662@qq.com 联系,我们将立即删除。

    小黑屋|手机版|Archiver|百度统计|投诉|蓝光电影下载

    GMT+8, 2020-4-6 06:29 , Processed in 0.017793 second(s), 18 queries , Gzip On, MemCached On.

    Powered by Discuz! X3.4

    © 2001-2013 Comsenz Inc.

    快速回复 返回顶部 返回列表