快捷导航
查看: 282|回复: 15

[剧情] 真爱至上 Love.Actually.2003.1080p.BluRay.x264-FHD 9.51GB

[复制链接]
  • TA的每日心情
    开心
    2020-2-15 21:32
  • 签到天数: 240 天

    [LV.8]以坛为家I

    1万

    主题

    1万

    帖子

    6万

    积分

    管理员

    蓝光君

    Rank: 9Rank: 9Rank: 9

    积分
    63172

    活跃会员热心会员推广达人突出贡献优秀版主荣誉管理论坛元老

    QQ
    发表于 2019-12-20 21:53:21 | 显示全部楼层 |阅读模式



    真爱至上 Love.Actually.2003.1080p.BluRay.x264-FHD 9.51GB-1.png

    译  名 真爱至上 / Love Actually Is All Around / 爱是您,爱是我(台) / 真情角落 / 真爱 / 真的恋爱了(港)
    片  名 Love Actually
    年  代 2003
    产  地 英国 / 美国 / 法国
    类  别 剧情 / 喜剧 / 爱情
    语  言 英语 / 葡萄牙语 / 法语
    上映日期 2003-09-07(多伦多电影节) / 2003-11-06(美国) / 2003-11-21(英国)
    IMDb评分  7.6/10 from 396341 users
    IMDb链接  https://www.imdb.com/title/tt0314331
    豆瓣评分 8.6/10 from 456319 users
    豆瓣链接 https://movie.douban.com/subject/1292401/
    片  长 135 分钟
    导  演 理查德·柯蒂斯 Richard Curtis
    编  剧 理查德·柯蒂斯 Richard Curtis
    主  演 休·格兰特 Hugh Grant
           柯林·菲尔斯 Colin Firth
           艾玛·汤普森 Emma Thompson
           凯拉·奈特莉 Keira Knightley
           连姆·尼森 Liam Neeson
           托马斯·桑斯特 Thomas Sangster
           比尔·奈伊 Bill Nighy
           马丁·弗瑞曼 Martin Freeman
           劳拉·琳妮 Laura Linney
           艾伦·瑞克曼 Alan Rickman
           克里斯·马歇尔 Kris Marshall
           罗德里格·桑托罗 Rodrigo Santoro
           罗温·艾金森 Rowan Atkinson
           比利·鲍伯·松顿 Billy Bob Thornton
           玛汀·麦古基安 Martine McCutcheon
           安德鲁·林肯 Andrew Lincoln
           露西娅·莫尼斯 Lúcia Moniz
           海克·玛卡琪 Heike Makatsch


    标  签 爱情 | 英国 | 温情 | 喜剧 | 圣诞 | 浪漫 | 经典 | 美国

    简  介  

      这是一出10个爱情故事串成的喜剧杂烩:
      失去母亲的小男孩终日郁郁寡欢,继父不知该如何安慰。当他得知继子喜欢上学校里最美的女孩,便热烈地鼓励儿子去追。小男孩为了赢得小女孩的关注,废寝忘食地练习架子鼓,只为了在圣诞节的晚会上能与她同台演出。勇敢的他,甚至为了最后的一记道别潇 洒地突破机场的安检区。
      两个孩子的母亲面对了婚姻危机。丈夫感情出轨,把项链送给了别的女人,给她的,则仅是一张她热爱的女歌手的CD。她找了借口仓皇躲入卧室,在歌声中隐忍啜泣。转个身,又夸张地大笑着,迎向娇女爱子欢喜的面容。 丈夫最终幡然醒悟。
      ……
      如此的小故事共有十出,温暖你我的心。

    获奖情况  

      第61届金球奖(2004)
      电影类 最佳音乐/喜剧片(提名)
      电影类 最佳编剧(提名) 理查德·柯蒂斯

      第57届英国电影学院奖(2004)
      电影奖 最佳英国影片(提名) 埃里克·菲尔纳 / 理查德·柯蒂斯 / 蒂姆·贝文 / Duncan Kenworthy
      电影奖 最佳男配角 比尔·奈伊
      电影奖 最佳女配角(提名) 艾玛·汤普森
    1. Video
    2. ID                                       : 1
    3. Format                                   : AVC
    4. Format/Info                              : Advanced Video Codec
    5. Format profile                           : High@L4
    6. Format settings                          : CABAC / 5 Ref Frames
    7. Format settings, CABAC                   : Yes
    8. Format settings, ReFrames                : 5 frames
    9. Codec ID                                 : V_MPEG4/ISO/AVC
    10. Duration                                 : 2 h 14 min
    11. Bit rate                                 : 8 585 kb/s
    12. Width                                    : 1 920 pixels
    13. Height                                   : 816 pixels
    14. Display aspect ratio                     : 2.35:1
    15. Frame rate mode                          : Constant
    16. Frame rate                               : 23.976 FPS
    17. Color space                              : YUV
    18. Chroma subsampling                       : 4:2:0
    19. Bit depth                                : 8 bits
    20. Scan type                                : Progressive
    21. Bits/(Pixel*Frame)                       : 0.229
    22. Stream size                              : 7.90 GiB (83%)
    23. Title                                    : Video
    24. Writing library                          : x264 core 66 r1093M 1df50b9
    25. Encoding settings                        : cabac=1 / ref=5 / deblock=1:0:0 / analyse=0x3:0x2 / me=umh / subme=7 / psy_rd=1.0:0.0 / mixed_ref=1 / me_range=16 / chroma_me=1 / trellis=1 / 8x8dct=1 / cqm=0 / deadzone=21,11 / chroma_qp_offset=-2 / threads=6 / nr=0 / decimate=1 / mbaff=0 / bframes=3 / b_pyramid=1 / b_adapt=1 / b_bias=0 / direct=1 / wpredb=1 / keyint=250 / keyint_min=25 / scenecut=40(pre) / rc=2pass / bitrate=8585 / ratetol=1.0 / qcomp=0.60 / qpmin=10 / qpmax=51 / qpstep=4 / cplxblur=20.0 / qblur=0.5 / ip_ratio=1.40 / pb_ratio=1.30 / aq=1:1.00
    26. Language                                 : English
    27. Default                                  : Yes
    28. Forced                                   : No

    29. Audio
    30. ID                                       : 2
    31. Format                                   : DTS
    32. Format/Info                              : Digital Theater Systems
    33. Codec ID                                 : A_DTS
    34. Duration                                 : 2 h 14 min
    35. Bit rate mode                            : Constant
    36. Bit rate                                 : 1 509 kb/s
    37. Channel(s)                               : 6 channels
    38. Channel positions                        : Front: L C R, Side: L R, LFE
    39. Sampling rate                            : 48.0 kHz
    40. Frame rate                               : 93.750 FPS (512 SPF)
    41. Bit depth                                : 16 bits
    42. Compression mode                         : Lossy
    43. Stream size                              : 1.42 GiB (15%)
    44. Title                                    : English DTS
    45. Language                                 : English
    46. Default                                  : No
    47. Forced                                   : No
    复制代码

    真爱至上 Love.Actually.2003.1080p.BluRay.x264-FHD 9.51GB-2.png 真爱至上 Love.Actually.2003.1080p.BluRay.x264-FHD 9.51GB-3.png 真爱至上 Love.Actually.2003.1080p.BluRay.x264-FHD 9.51GB-4.png

    游客,如果您要查看本帖隐藏内容请回复



    大中午的快困死蓝光君了
    回复

    使用道具 举报

    该用户从未签到

    0

    主题

    1万

    帖子

    1万

    积分

    论坛元老

    Rank: 8Rank: 8

    积分
    17189
    发表于 2019-12-20 21:53:37 | 显示全部楼层
    回复 支持 反对

    使用道具 举报

    该用户从未签到

    0

    主题

    7088

    帖子

    6931

    积分

    论坛元老

    Rank: 8Rank: 8

    积分
    6931
    发表于 2019-12-20 21:53:56 | 显示全部楼层
    回复 支持 反对

    使用道具 举报

    该用户从未签到

    0

    主题

    1530

    帖子

    1541

    积分

    金牌会员

    Rank: 6Rank: 6

    积分
    1541
    发表于 2019-12-25 10:16:04 | 显示全部楼层
    回复 支持 反对

    使用道具 举报

    该用户从未签到

    0

    主题

    267

    帖子

    251

    积分

    中级会员

    Rank: 3Rank: 3

    积分
    251
    发表于 2019-12-28 20:57:57 | 显示全部楼层
    这个帖子不回对不起自己!我想我是一天也不能离开蓝光电影网
    回复 支持 反对

    使用道具 举报

    该用户从未签到

    0

    主题

    1万

    帖子

    1万

    积分

    论坛元老

    Rank: 8Rank: 8

    积分
    17189
    发表于 2019-12-28 20:58:46 | 显示全部楼层
    楼主太厉害了!楼主,电影应该很好看我觉得蓝光电影下载真是个好地方!
    回复 支持 反对

    使用道具 举报

    该用户从未签到

    0

    主题

    7088

    帖子

    6931

    积分

    论坛元老

    Rank: 8Rank: 8

    积分
    6931
    发表于 2019-12-28 22:15:03 | 显示全部楼层
    回复 支持 反对

    使用道具 举报

    该用户从未签到

    0

    主题

    1万

    帖子

    1万

    积分

    论坛元老

    Rank: 8Rank: 8

    积分
    17189
    发表于 2020-1-2 01:49:31 | 显示全部楼层

    是个好电影!必须要看的!多谢分享!
    回复 支持 反对

    使用道具 举报

    该用户从未签到

    0

    主题

    1万

    帖子

    1万

    积分

    论坛元老

    Rank: 8Rank: 8

    积分
    17189
    发表于 2020-1-7 20:32:26 | 显示全部楼层
    回复 支持 反对

    使用道具 举报

    该用户从未签到

    0

    主题

    1万

    帖子

    1万

    积分

    论坛元老

    Rank: 8Rank: 8

    积分
    10785
    发表于 2020-1-17 09:55:51 | 显示全部楼层
    回复 支持 反对

    使用道具 举报

    懒得打字嘛,点击右侧快捷回复 【右侧内容,后台自定义】
    您需要登录后才可以回帖 登录 | 立即注册

    本版积分规则

    郑重声明,本站所有作品片源来自互联网公开渠道,均为网友上传交流学习,影视版权均归原电影公司所有,如有侵犯版权,请与 2322694662@qq.com 联系,我们将立即删除。

    小黑屋|手机版|Archiver|百度统计|投诉|蓝光电影下载

    GMT+8, 2020-12-4 19:39 , Processed in 0.042388 second(s), 21 queries , Gzip On, MemCached On.

    Powered by Discuz! X3.4

    © 2001-2013 Comsenz Inc.

    快速回复 返回顶部 返回列表