快捷导航
查看: 410|回复: 19

[动作] 一个人的武林 Kung.Fu.Jungle.2014.CHINESE.1080p.BluRay.x264.DTS-TayTO 11.63GB

[复制链接]
  • TA的每日心情
    开心
    2020-2-15 21:32
  • 签到天数: 240 天

    [LV.8]以坛为家I

    1万

    主题

    1万

    帖子

    6万

    积分

    管理员

    蓝光君

    Rank: 9Rank: 9Rank: 9

    积分
    63172

    活跃会员热心会员推广达人突出贡献优秀版主荣誉管理论坛元老

    QQ
    发表于 2020-2-15 11:33:44 | 显示全部楼层 |阅读模式



    一个人的武林 Kung.Fu.Jungle.2014.CHINESE.1080p.BluRay.x264.DTS-TayTO 11.63GB-1.png

    译  名 Kung Fu Jungle / Kung Fu Killer / Last of The Best
    片  名 一个人的武林
    年  代 2014
    产  地 中国大陆 / 中国香港
    类  别 动作 / 惊悚
    语  言 汉语普通话 / 粤语
    上映日期 2014-10-31(中国大陆)
    IMDb评分  6.5/10 from 9098 users
    IMDb链接  https://www.imdb.com/title/tt2952602
    豆瓣评分 6.4/10 from 61594 users
    豆瓣链接 https://movie.douban.com/subject/24695277/
    片  长 100分钟
    导  演 陈德森 Teddy Chan
    编  剧 刘浩良 Ho Leung Lau / 麦天枢 Tin Shu Mak / 陈德森 Teddy Chan
    主  演 甄子丹 Donnie Yen
           王宝强 Baoqiang Wang
           杨采妮 Charlie Yeung
           白冰 Bing Bai
           方中信 Alex Fong
           樊少皇 Siu-Wong Fan
           释行宇 Xingyu Shi
           姜大卫 David Chiang
           喻亢 Kang Yu
           思漩 Christie Chen
           吴浩康 Deep Ng
           纪焕博 Rock Ji
           王嘉慧 Jessica Wong
           张文杰 Man Kit Cheung
           刘伟强 Andrew Lau
           郭子健 Derek Kwok Chi-kin
           孟海 Hoi Mang
           邹文怀 Raymond Chow
           袁祥仁 Cheung-Yan Yuen
           张蓝心 Lanxin Zhang
           元彬 Bun Yuen


    标  签 动作 | 甄子丹 | 王宝强 | 香港 | 香港电影 | 犯罪 | 2014 | 暴力

    简  介  

      孔武有力的夏侯武(甄子丹 饰)曾是佛山武馆合一门的弟子,当年他争强好胜,在香港担任教官时与他人比武,结果失手将对方打死最终锒铛入狱。三年后的某天,闹市街头发生一宗离奇车祸,死者似乎在车祸前就被武功高强之人残忍杀害。夏侯武在狱中看到该新闻,心知在此背后有一场针对武林中人的猎杀正有条不紊地展开。他强烈要求面见重案组总督察陆玄心(杨采妮 饰),由于言中接下来命案的遇害者,终于取得陆督察的信任,得以协助警方办案。与此同时,先天残疾却练得一身绝技的封于修(王宝强 饰)四处挑战隐于闹市的高手,更在获胜后将他们无情杀害。
      武林波涛汹涌,夏侯武和封于修迎来对决的终极时刻……

    获奖情况  

      第51届台北金马影展(2014)
      金马奖 最佳动作设计(提名) 董玮 / 甄子丹 / 严华 / 元彬

      第34届香港电影金像奖(2015)
      最佳男配角(提名) 王宝强
      最佳动作设计
      最佳音响效果(提名)
      最佳视觉效果(提名)
    1. Video
    2. ID                                       : 1
    3. Format                                   : AVC
    4. Format/Info                              : Advanced Video Codec
    5. Format profile                           : High@L4
    6. Format settings                          : CABAC / 5 Ref Frames
    7. Format settings, CABAC                   : Yes
    8. Format settings, Reference frames        : 5 frames
    9. Codec ID                                 : V_MPEG4/ISO/AVC
    10. Duration                                 : 1 h 40 min
    11. Bit rate                                 : 15.1 Mb/s
    12. Width                                    : 1 920 pixels
    13. Height                                   : 816 pixels
    14. Display aspect ratio                     : 2.35:1
    15. Frame rate mode                          : Constant
    16. Frame rate                               : 24.000 FPS
    17. Color space                              : YUV
    18. Chroma subsampling                       : 4:2:0
    19. Bit depth                                : 8 bits
    20. Scan type                                : Progressive
    21. Bits/(Pixel*Frame)                       : 0.402
    22. Stream size                              : 10.6 GiB (91%)
    23. Title                                    : hungdaita @ TayTO
    24. Writing library                          : x264 core 142 r2431+42 c69a006 tMod [High@L4 X86_64]
    25. Encoding settings                        : cabac=1 / ref=5 / deblock=1:-3:-3 / analyse=0x3:0x133 / me=umh / subme=11 / psy=1 / fade_compensate=0.00 / psy_rd=1.05:0.00 / mixed_ref=1 / me_range=48 / chroma_me=1 / trellis=2 / 8x8dct=1 / cqm=0 / deadzone=21,11 / fast_pskip=0 / chroma_qp_offset=-2 / threads=12 / lookahead_threads=2 / sliced_threads=0 / nr=0 / decimate=0 / interlaced=0 / bluray_compat=0 / constrained_intra=0 / fgo=0 / bframes=8 / b_pyramid=2 / b_adapt=2 / b_bias=0 / direct=3 / weightb=1 / open_gop=0 / weightp=2 / keyint=250 / keyint_min=24 / scenecut=40 / intra_refresh=0 / rc_lookahead=60 / rc=crf / mbtree=0 / crf=16.2000 / qcomp=0.70 / qpmin=0:0:0 / qpmax=69:69:69 / qpstep=4 / vbv_maxrate=50000 / vbv_bufsize=62500 / crf_max=0.0 / nal_hrd=none / filler=0 / ip_ratio=1.30 / pb_ratio=1.20 / aq=1:0.80 / aq-sensitivity=10.00 / aq-factor=1.00:1.00:1.00 / aq2=0 / aq3=0 / zones=180,981,b=1.8/2532,4922,b=1.5/26877,26952,b=1.5/27019,27178,b=1.5/56113,56155,b=1.5
    26. Language                                 : Chinese
    27. Default                                  : Yes
    28. Forced                                   : No
    29. Color range                              : Limited
    30. Matrix coefficients                      : BT.709

    31. Audio
    32. ID                                       : 2
    33. Format                                   : DTS
    34. Format/Info                              : Digital Theater Systems
    35. Codec ID                                 : A_DTS
    36. Duration                                 : 1 h 40 min
    37. Bit rate mode                            : Constant
    38. Bit rate                                 : 1 509 kb/s
    39. Channel(s)                               : 6 channels
    40. Channel layout                           : C L R Ls Rs LFE
    41. Sampling rate                            : 48.0 kHz
    42. Frame rate                               : 93.750 FPS (512 SPF)
    43. Bit depth                                : 16 bits
    44. Compression mode                         : Lossy
    45. Stream size                              : 1.05 GiB (9%)
    46. Title                                    : Cantonese
    47. Language                                 : Chinese
    48. Default                                  : Yes
    49. Forced                                   : No

    50. Text #1
    51. ID                                       : 3
    52. Format                                   : UTF-8
    53. Codec ID                                 : S_TEXT/UTF8
    54. Codec ID/Info                            : UTF-8 Plain Text
    55. Duration                                 : 1 h 32 min
    56. Bit rate                                 : 37 b/s
    57. Count of elements                        : 971
    58. Stream size                              : 25.3 KiB (0%)
    59. Language                                 : English
    60. Default                                  : No
    61. Forced                                   : No

    62. Text #2
    63. ID                                       : 4
    64. Format                                   : UTF-8
    65. Codec ID                                 : S_TEXT/UTF8
    66. Codec ID/Info                            : UTF-8 Plain Text
    67. Duration                                 : 1 h 32 min
    68. Bit rate                                 : 34 b/s
    69. Count of elements                        : 956
    70. Stream size                              : 23.1 KiB (0%)
    71. Title                                    : Simplified
    72. Language                                 : Chinese
    73. Default                                  : No
    74. Forced                                   : No

    75. Text #3
    76. ID                                       : 5
    77. Format                                   : UTF-8
    78. Codec ID                                 : S_TEXT/UTF8
    79. Codec ID/Info                            : UTF-8 Plain Text
    80. Duration                                 : 1 h 32 min
    81. Bit rate                                 : 34 b/s
    82. Count of elements                        : 956
    83. Stream size                              : 23.1 KiB (0%)
    84. Title                                    : Traditional
    85. Language                                 : Chinese
    86. Default                                  : No
    87. Forced                                   : No

    88. Text #4
    89. ID                                       : 6
    90. Format                                   : UTF-8
    91. Codec ID                                 : S_TEXT/UTF8
    92. Codec ID/Info                            : UTF-8 Plain Text
    93. Duration                                 : 1 h 35 min
    94. Bit rate                                 : 75 b/s
    95. Count of elements                        : 1143
    96. Stream size                              : 52.8 KiB (0%)
    97. Title                                    : PDV
    98. Language                                 : Vietnamese
    99. Default                                  : No
    100. Forced                                   : No

    101. Menu
    102. 00:00:00.000                             : en:00:00:00.000
    103. 00:07:54.667                             : en:00:07:54.667
    104. 00:14:51.083                             : en:00:14:51.083
    105. 00:25:19.083                             : en:00:25:19.083
    106. 00:33:39.458                             : en:00:33:39.458
    107. 00:41:16.750                             : en:00:41:16.750
    108. 00:50:02.208                             : en:00:50:02.208
    109. 00:58:43.417                             : en:00:58:43.417
    110. 01:07:20.000                             : en:01:07:20.000
    111. 01:14:41.833                             : en:01:14:41.833
    112. 01:23:55.917                             : en:01:23:55.917
    113. 01:33:36.708                             : en:01:33:36.708
    复制代码

    一个人的武林 Kung.Fu.Jungle.2014.CHINESE.1080p.BluRay.x264.DTS-TayTO 11.63GB-2.png 一个人的武林 Kung.Fu.Jungle.2014.CHINESE.1080p.BluRay.x264.DTS-TayTO 11.63GB-3.png 一个人的武林 Kung.Fu.Jungle.2014.CHINESE.1080p.BluRay.x264.DTS-TayTO 11.63GB-4.png

    游客,如果您要查看本帖隐藏内容请回复



    大中午的快困死蓝光君了
    回复

    使用道具 举报

    该用户从未签到

    0

    主题

    621

    帖子

    547

    积分

    高级会员

    Rank: 4

    积分
    547
    发表于 2020-2-15 11:34:04 | 显示全部楼层
    这个帖子不回对不起自己!我想我是一天也不能离开蓝光电影网
    回复 支持 反对

    使用道具 举报

    该用户从未签到

    0

    主题

    68

    帖子

    -8

    积分

    限制会员

    积分
    -8
    发表于 2020-2-15 14:45:54 | 显示全部楼层
    回复 支持 反对

    使用道具 举报

    该用户从未签到

    0

    主题

    1万

    帖子

    1万

    积分

    论坛元老

    Rank: 8Rank: 8

    积分
    10785
    发表于 2020-2-15 15:44:36 | 显示全部楼层
    感谢楼主的无私分享!要想蓝光高清电影网好 就靠你我他
    回复 支持 反对

    使用道具 举报

    该用户从未签到

    0

    主题

    1万

    帖子

    1万

    积分

    论坛元老

    Rank: 8Rank: 8

    积分
    11882
    发表于 2020-2-17 03:49:56 | 显示全部楼层
    回复 支持 反对

    使用道具 举报

    该用户从未签到

    0

    主题

    828

    帖子

    -119

    积分

    新手上路

    Rank: 1

    积分
    -119
    发表于 2020-2-17 13:27:31 | 显示全部楼层
    回复 支持 反对

    使用道具 举报

  • TA的每日心情
    开心
    2020-3-27 09:36
  • 签到天数: 42 天

    [LV.5]常住居民I

    0

    主题

    202

    帖子

    602

    积分

    高级会员

    Rank: 4

    积分
    602
    发表于 2020-2-17 13:29:22 | 显示全部楼层
    楼主发贴辛苦了,谢谢楼主分享!我觉得蓝光电影网是注册对了!
    回复 支持 反对

    使用道具 举报

    该用户从未签到

    0

    主题

    1万

    帖子

    1万

    积分

    论坛元老

    Rank: 8Rank: 8

    积分
    11882
    发表于 2020-2-17 13:29:22 | 显示全部楼层
    回复 支持 反对

    使用道具 举报

    该用户从未签到

    0

    主题

    1万

    帖子

    1万

    积分

    论坛元老

    Rank: 8Rank: 8

    积分
    11882
    发表于 2020-2-17 23:48:20 | 显示全部楼层
    回复 支持 反对

    使用道具 举报

    该用户从未签到

    0

    主题

    341

    帖子

    295

    积分

    中级会员

    Rank: 3Rank: 3

    积分
    295
    发表于 2020-2-24 03:54:16 | 显示全部楼层

    是个好电影!必须要看的!多谢分享!
    回复 支持 反对

    使用道具 举报

    懒得打字嘛,点击右侧快捷回复 【右侧内容,后台自定义】
    您需要登录后才可以回帖 登录 | 立即注册

    本版积分规则

    郑重声明,本站所有作品片源来自互联网公开渠道,均为网友上传交流学习,影视版权均归原电影公司所有,如有侵犯版权,请与 2322694662@qq.com 联系,我们将立即删除。

    小黑屋|手机版|Archiver|百度统计|投诉|蓝光电影下载

    GMT+8, 2020-12-4 19:45 , Processed in 0.045575 second(s), 20 queries , Gzip On, MemCached On.

    Powered by Discuz! X3.4

    © 2001-2013 Comsenz Inc.

    快速回复 返回顶部 返回列表