快捷导航
查看: 744|回复: 35

[动作] 第一滴血5:最后的血 Rambo.Last.Blood.2019.EXTENDED.1080p.BluRay.x264-SPRiNTER 7.94GB

[复制链接]
  • TA的每日心情
    开心
    2020-2-15 21:32
  • 签到天数: 240 天

    [LV.8]以坛为家I

    1万

    主题

    1万

    帖子

    4万

    积分

    管理员

    蓝光君

    Rank: 9Rank: 9Rank: 9

    积分
    46696

    活跃会员热心会员推广达人突出贡献优秀版主荣誉管理论坛元老

    QQ
    发表于 2020-3-30 21:31:14 | 显示全部楼层 |阅读模式

    第一滴血5:最后的血 Rambo.Last.Blood.2019.EXTENDED.1080p.BluRay.x264-SPRiNTER 7.94GB-1.png

    译  名 第一滴血5:最后的血 / Rambo 5 / Rambo 5: Last Blood / Rambo V / Rambo V: Last Blood / 兰博5:最后一滴血 / 第一滴血5 / 第一滴血:最后一战 / 第一滴血:终极血战(港) / 蓝波:最后一滴血(台)
    片  名 Rambo: Last Blood
    年  代 2019
    产  地 美国 / 西班牙 / 保加利亚
    类  别 动作 / 惊悚 / 冒险
    语  言 英语 / 西班牙语
    上映日期 2019-09-18(印度尼西亚) / 2019-09-20(美国) / 2019-09-27(西班牙)
    IMDb评分  6.2/10 from 53662 users
    IMDb链接  https://www.imdb.com/title/tt1206885
    豆瓣评分 7.5/10 from 26898 users
    豆瓣链接 https://movie.douban.com/subject/10546436/
    片  长 89分钟
    导  演 阿德里安·格鲁伯格 Adrian Grunberg
    编  剧 马修·西鲁尼克 Matthew Cirulnick / 西尔维斯特·史泰龙 Sylvester Stallone / 丹·戈登 Dan Gordon / 大卫·莫瑞尔 David Morrell
    主  演 西尔维斯特·史泰龙 Sylvester Stallone
           帕斯·贝加 Paz Vega
           塞尔吉奥·佩里斯-门切塔 Sergio Peris-Mencheta
           艾德里安娜·巴拉扎 Adriana Barraza
           维特·蒙雷尔 Yvette Monreal
           吉妮·金 Genie Kim
           华金·科西奥 Joaquín Cosio
           帕斯卡西奥·洛佩斯 Pascacio López
           奥斯卡·贾恩那达 óscar Jaenada
           亚历山大·迪米特罗夫 Alexander Dimitrov
           亚伦·科恩 Aaron Cohen
           尼克·威特曼 Nick Wittman
           杰西卡·马德森 Jessica Madsen
           路易·曼迪勒 Louis Mandylor
           欧文·戴维斯 Owen Davis
           阿塔纳斯·斯雷布雷夫 Atanas Srebrev
           乔治·曼切夫 Georgi Manchev


    标  签 动作 | 暴力 | 硬汉 | 血腥 | 美国 | 经典 | 2019 | 犯罪

    简  介  

      西尔维斯特·史泰龙回归[第一滴血5],并有望执导。除主演外,据悉史泰龙将操刀剧本,故事围绕兰博为营救朋友之女与墨西哥毒枭展开殊死搏斗展开。制片艾威·勒纳([敢死队]系列)。该系列首部于1982年上映,2008年史泰龙曾自导自演[第一滴血4]。[第一滴血5]将在本届戛纳电影节预售,9月开拍。
    1. Video
    2. ID                                       : 1
    3. Format                                   : AVC
    4. Format/Info                              : Advanced Video Codec
    5. Format profile                           : High@L4
    6. Format settings                          : CABAC / 5 Ref Frames
    7. Format settings, CABAC                   : Yes
    8. Format settings, Reference frames        : 5 frames
    9. Codec ID                                 : V_MPEG4/ISO/AVC
    10. Duration                                 : 1 h 40 min
    11. Bit rate                                 : 9 807 kb/s
    12. Width                                    : 1 920 pixels
    13. Height                                   : 808 pixels
    14. Display aspect ratio                     : 2.40:1
    15. Frame rate mode                          : Constant
    16. Frame rate                               : 23.976 (24000/1001) FPS
    17. Color space                              : YUV
    18. Chroma subsampling                       : 4:2:0
    19. Bit depth                                : 8 bits
    20. Scan type                                : Progressive
    21. Bits/(Pixel*Frame)                       : 0.264
    22. Stream size                              : 6.88 GiB (87%)
    23. Writing library                          : x264 core 159 r2991 1771b55
    24. Encoding settings                        : cabac=1 / ref=5 / deblock=1:-3:-3 / analyse=0x3:0x133 / me=umh / subme=9 / psy=1 / psy_rd=1.00:0.00 / mixed_ref=1 / me_range=16 / chroma_me=1 / trellis=2 / 8x8dct=1 / cqm=0 / deadzone=21,11 / fast_pskip=0 / chroma_qp_offset=-2 / threads=25 / lookahead_threads=2 / sliced_threads=0 / nr=0 / decimate=1 / interlaced=0 / bluray_compat=0 / constrained_intra=0 / bframes=3 / b_pyramid=2 / b_adapt=2 / b_bias=0 / direct=3 / weightb=1 / open_gop=0 / weightp=2 / keyint=250 / keyint_min=23 / scenecut=40 / intra_refresh=0 / rc_lookahead=60 / rc=2pass / mbtree=1 / bitrate=9807 / ratetol=1.0 / qcomp=0.60 / qpmin=10 / qpmax=69 / qpstep=4 / cplxblur=20.0 / qblur=0.5 / ip_ratio=1.40 / aq=1:0.70
    25. Default                                  : Yes
    26. Forced                                   : No

    27. Audio
    28. ID                                       : 2
    29. Format                                   : DTS
    30. Format/Info                              : Digital Theater Systems
    31. Codec ID                                 : A_DTS
    32. Duration                                 : 1 h 40 min
    33. Bit rate mode                            : Constant
    34. Bit rate                                 : 1 509 kb/s
    35. Channel(s)                               : 6 channels
    36. Channel layout                           : C L R Ls Rs LFE
    37. Sampling rate                            : 48.0 kHz
    38. Frame rate                               : 93.750 FPS (512 SPF)
    39. Bit depth                                : 16 bits
    40. Compression mode                         : Lossy
    41. Stream size                              : 1.06 GiB (13%)
    42. Title                                    : English DTS 1509 kbps
    43. Language                                 : English
    44. Default                                  : No
    45. Forced                                   : No

    46. Menu
    47. 00:00:00.000                             : :
    48. 00:07:59.228                             : :
    49. 00:18:18.055                             : :
    50. 00:24:58.497                             : :
    51. 00:31:50.450                             : :
    52. 00:38:44.113                             : :
    53. 00:50:06.753                             : :
    54. 00:57:01.084                             : :
    55. 01:05:41.729                             : :
    56. 01:13:28.529                             : :
    57. 01:20:24.236                             : :
    58. 01:29:31.366                             : :
    复制代码

    第一滴血5:最后的血 Rambo.Last.Blood.2019.EXTENDED.1080p.BluRay.x264-SPRiNTER 7.94GB-2.png

    游客,如果您要查看本帖隐藏内容请回复



    大中午的快困死蓝光君了
    回复

    使用道具 举报

    该用户从未签到

    0

    主题

    1万

    帖子

    1万

    积分

    论坛元老

    Rank: 8Rank: 8

    积分
    18946
    发表于 2020-3-30 21:31:23 | 显示全部楼层
    楼主太厉害了!楼主,电影应该很好看我觉得蓝光电影下载真是个好地方!
    回复 支持 反对

    使用道具 举报

    该用户从未签到

    0

    主题

    1万

    帖子

    1万

    积分

    论坛元老

    Rank: 8Rank: 8

    积分
    11805
    发表于 2020-3-30 21:31:36 | 显示全部楼层
    回复 支持 反对

    使用道具 举报

    该用户从未签到

    0

    主题

    1万

    帖子

    1万

    积分

    论坛元老

    Rank: 8Rank: 8

    积分
    18946
    发表于 2020-3-30 21:58:01 | 显示全部楼层
    回复 支持 反对

    使用道具 举报

    该用户从未签到

    0

    主题

    1万

    帖子

    1万

    积分

    论坛元老

    Rank: 8Rank: 8

    积分
    12926
    发表于 2020-3-30 23:04:32 | 显示全部楼层

    非常精彩的电影,下来收藏,感谢楼主
    回复 支持 反对

    使用道具 举报

    该用户从未签到

    0

    主题

    140

    帖子

    112

    积分

    注册会员

    Rank: 2

    积分
    112
    发表于 2020-3-30 23:04:38 | 显示全部楼层
    回复 支持 反对

    使用道具 举报

    该用户从未签到

    0

    主题

    1万

    帖子

    1万

    积分

    论坛元老

    Rank: 8Rank: 8

    积分
    18946
    发表于 2020-3-31 13:19:13 | 显示全部楼层

    是个好电影!必须要看的!多谢分享!
    回复 支持 反对

    使用道具 举报

    该用户从未签到

    0

    主题

    1万

    帖子

    1万

    积分

    论坛元老

    Rank: 8Rank: 8

    积分
    18946
    发表于 2020-3-31 14:34:59 | 显示全部楼层
    回复 支持 反对

    使用道具 举报

    该用户从未签到

    0

    主题

    2646

    帖子

    2573

    积分

    金牌会员

    Rank: 6Rank: 6

    积分
    2573
    发表于 2020-3-31 14:45:49 | 显示全部楼层
    回复 支持 反对

    使用道具 举报

  • TA的每日心情
    开心
    2020-4-2 00:58
  • 签到天数: 3 天

    [LV.2]偶尔看看I

    1

    主题

    10

    帖子

    29

    积分

    新手上路

    Rank: 1

    积分
    29
    发表于 2020-3-31 19:15:42 | 显示全部楼层
    回复 支持 反对

    使用道具 举报

    懒得打字嘛,点击右侧快捷回复 【右侧内容,后台自定义】
    您需要登录后才可以回帖 登录 | 立即注册

    本版积分规则

    郑重声明,本站所有作品片源来自互联网公开渠道,均为网友上传交流学习,影视版权均归原电影公司所有,如有侵犯版权,请与 2322694662@qq.com 联系,我们将立即删除。

    小黑屋|手机版|Archiver|百度统计|投诉|蓝光电影下载

    GMT+8, 2020-7-13 12:26 , Processed in 0.041380 second(s), 20 queries , Gzip On, MemCached On.

    Powered by Discuz! X3.4

    © 2001-2013 Comsenz Inc.

    快速回复 返回顶部 返回列表