快捷导航
查看: 75|回复: 12

[犯罪] 21座桥 21.Bridges.2019.1080p.BluRay.x264-AAA 7.64GB

[复制链接]
  • TA的每日心情
    开心
    2020-2-15 21:32
  • 签到天数: 240 天

    [LV.8]以坛为家I

    1万

    主题

    1万

    帖子

    4万

    积分

    管理员

    蓝光君

    Rank: 9Rank: 9Rank: 9

    积分
    46696

    活跃会员热心会员推广达人突出贡献优秀版主荣誉管理论坛元老

    QQ
    发表于 2020-5-10 16:09:49 | 显示全部楼层 |阅读模式

    21座桥 21.Bridges.2019.1080p.BluRay.x264-AAA 7.64GB-1.png

    译  名 21座桥 / 17 Bridges / 17座桥 / 暴走曼哈顿(台) / 曼克顿封暴(港) / 追击17桥
    片  名 21 Bridges
    年  代 2019
    产  地 美国
    类  别 惊悚 / 犯罪
    语  言 英语
    上映日期 2019-09-25(印度尼西亚) / 2019-11-22(美国)
    IMDb评分  6.6/10 from 7049 users
    IMDb链接  https://www.imdb.com/title/tt8688634
    豆瓣评分 6.5/10 from 309 users
    豆瓣链接 https://movie.douban.com/subject/30271717/
    片  长 99分钟
    导  演 布莱恩·柯克 Brian Kirk
    编  剧 亚当·梅维斯 Adam Mervis / 马修·迈克尔·卡纳汉 Matthew Michael Carnahan
    主  演 查德维克·博斯曼 Chadwick Boseman
           西耶娜·米勒 Sienna Miller
           泰勒·克奇 Taylor Kitsch
           J·K·西蒙斯 J.K. Simmons
           凯斯·大卫 Keith David
           史蒂芬·詹姆士 Stephan James
           凯蒂·麦克莱伦 Katie McClellan
           莎伊娜·瑞恩 Shayna Ryan
           加里·卡尔 Gary Carr
           维多利亚·卡塔赫纳 Victoria Cartagena
           戴尔·帕文斯基 Dale Pavinski
           托比·海明威 Toby Hemingway
           克里斯蒂安·艾赛亚 Kristian Isaiah
           路易斯·坎瑟米 Louis Cancelmi
           乔恩·道格拉斯·雷尼 Jon Douglas Rainey
           杰拉德·瓦德 Jared Ward
           莫洛克·奥马里 Morocco Omari
           苏泽特·古恩 Suzette Gunn
           迈克尔·J·克雷米 Michael J. Kraycik
           迈克尔·J·莱昂斯 Michael J. Lyons


    标  签 犯罪 | 美国 | 动作 | 惊悚 | 2019 | 纽约 | 剧情 | 警匪

    简  介  

      影片风格据称类似《局内人》和《亡命天涯》,博斯曼饰一个蒙羞的纽约警局警探,因为被卷入一场全城范围的追捕某警察杀手的行动,获得了赎罪机会——他发现了一起巨大的阴谋:自己的警察同事可能跟一个犯罪帝国有关联。他必须决定到底要追捕谁,而谁其实又在追捕他。在这起行动中,曼哈顿在历史上第一次全境封锁,岛上与外界联系的17座桥全部禁止进出。
    1. Video
    2. ID                                       : 1
    3. Format                                   : AVC
    4. Format/Info                              : Advanced Video Codec
    5. Format profile                           : High@L4
    6. Format settings                          : CABAC / 5 Ref Frames
    7. Format settings, CABAC                   : Yes
    8. Format settings, Reference frames        : 5 frames
    9. Codec ID                                 : V_MPEG4/ISO/AVC
    10. Duration                                 : 1 h 39 min
    11. Bit rate                                 : 9 440 kb/s
    12. Width                                    : 1 920 pixels
    13. Height                                   : 808 pixels
    14. Display aspect ratio                     : 2.40:1
    15. Frame rate mode                          : Constant
    16. Frame rate                               : 23.976 (24000/1001) FPS
    17. Color space                              : YUV
    18. Chroma subsampling                       : 4:2:0
    19. Bit depth                                : 8 bits
    20. Scan type                                : Progressive
    21. Bits/(Pixel*Frame)                       : 0.254
    22. Stream size                              : 6.58 GiB (86%)
    23. Title                                    : 21.Bridges.2019.1080p.BluRay.x264-AAA
    24. Writing library                          : x264 core 159 r2991 1771b55
    25. Encoding settings                        : cabac=1 / ref=5 / deblock=1:0:0 / analyse=0x3:0x113 / me=umh / subme=8 / psy=1 / psy_rd=1.00:0.00 / mixed_ref=1 / me_range=16 / chroma_me=1 / trellis=1 / 8x8dct=1 / cqm=0 / deadzone=21,11 / fast_pskip=1 / chroma_qp_offset=-2 / threads=25 / lookahead_threads=4 / sliced_threads=0 / nr=0 / decimate=1 / interlaced=0 / bluray_compat=0 / constrained_intra=0 / bframes=3 / b_pyramid=2 / b_adapt=2 / b_bias=0 / direct=3 / weightb=1 / open_gop=0 / weightp=2 / keyint=240 / keyint_min=23 / scenecut=40 / intra_refresh=0 / rc_lookahead=50 / rc=2pass / mbtree=1 / bitrate=9440 / ratetol=1.0 / qcomp=0.60 / qpmin=0 / qpmax=69 / qpstep=4 / cplxblur=20.0 / qblur=0.5 / ip_ratio=1.40 / aq=1:1.00
    26. Default                                  : Yes
    27. Forced                                   : No

    28. Audio
    29. ID                                       : 2
    30. Format                                   : DTS
    31. Format/Info                              : Digital Theater Systems
    32. Codec ID                                 : A_DTS
    33. Duration                                 : 1 h 39 min
    34. Bit rate mode                            : Constant
    35. Bit rate                                 : 1 509 kb/s
    36. Channel(s)                               : 6 channels
    37. Channel layout                           : C L R Ls Rs LFE
    38. Sampling rate                            : 48.0 kHz
    39. Frame rate                               : 93.750 FPS (512 SPF)
    40. Bit depth                                : 24 bits
    41. Compression mode                         : Lossy
    42. Stream size                              : 1.05 GiB (14%)
    43. Title                                    : English Digital Theater Systems (DTS)
    44. Language                                 : English
    45. Default                                  : Yes
    46. Forced                                   : No

    47. Text #1
    48. ID                                       : 3
    49. Format                                   : UTF-8
    50. Codec ID                                 : S_TEXT/UTF8
    51. Codec ID/Info                            : UTF-8 Plain Text
    52. Duration                                 : 1 h 29 min
    53. Bit rate                                 : 52 b/s
    54. Count of elements                        : 1116
    55. Stream size                              : 34.5 KiB (0%)
    56. Title                                    : English
    57. Language                                 : English
    58. Default                                  : No
    59. Forced                                   : No

    60. Text #2
    61. ID                                       : 4
    62. Format                                   : UTF-8
    63. Codec ID                                 : S_TEXT/UTF8
    64. Codec ID/Info                            : UTF-8 Plain Text
    65. Duration                                 : 1 h 30 min
    66. Bit rate                                 : 56 b/s
    67. Count of elements                        : 1249
    68. Stream size                              : 37.6 KiB (0%)
    69. Title                                    : English SDH
    70. Language                                 : English
    71. Default                                  : No
    72. Forced                                   : No

    73. Menu
    74. 00:00:00.000                             : :Chapter 01
    75. 00:03:16.196                             : :Chapter 02
    76. 00:07:48.510                             : :Chapter 03
    77. 00:11:59.344                             : :Chapter 04
    78. 00:16:54.722                             : :Chapter 05
    79. 00:22:33.143                             : :Chapter 06
    80. 00:30:54.561                             : :Chapter 07
    81. 00:34:50.046                             : :Chapter 08
    82. 00:40:16.414                             : :Chapter 09
    83. 00:44:39.719                             : :Chapter 10
    84. 00:50:54.718                             : :Chapter 11
    85. 00:54:04.408                             : :Chapter 12
    86. 00:58:52.320                             : :Chapter 13
    87. 01:02:08.600                             : :Chapter 14
    88. 01:06:19.601                             : :Chapter 15
    89. 01:10:27.557                             : :Chapter 16
    90. 01:16:19.617                             : :Chapter 17
    91. 01:19:19.755                             : :Chapter 18
    92. 01:25:15.110                             : :Chapter 19
    93. 01:32:34.382                             : :Chapter 20
    复制代码

    21座桥 21.Bridges.2019.1080p.BluRay.x264-AAA 7.64GB-2.png

    游客,如果您要查看本帖隐藏内容请回复



    大中午的快困死蓝光君了
    回复

    使用道具 举报

    该用户从未签到

    0

    主题

    1万

    帖子

    1万

    积分

    论坛元老

    Rank: 8Rank: 8

    积分
    11805
    发表于 2020-5-10 16:10:04 | 显示全部楼层
    这个帖子不回对不起自己!我想我是一天也不能离开蓝光电影网
    回复 支持 反对

    使用道具 举报

    该用户从未签到

    0

    主题

    1万

    帖子

    1万

    积分

    论坛元老

    Rank: 8Rank: 8

    积分
    18946
    发表于 2020-5-10 22:54:01 | 显示全部楼层
    回复 支持 反对

    使用道具 举报

    该用户从未签到

    0

    主题

    1万

    帖子

    1万

    积分

    论坛元老

    Rank: 8Rank: 8

    积分
    18946
    发表于 2020-5-11 11:56:45 | 显示全部楼层
    回复 支持 反对

    使用道具 举报

    该用户从未签到

    0

    主题

    72

    帖子

    49

    积分

    新手上路

    Rank: 1

    积分
    49
    发表于 2020-5-11 13:24:32 | 显示全部楼层
    回复 支持 反对

    使用道具 举报

    该用户从未签到

    0

    主题

    68

    帖子

    50

    积分

    注册会员

    Rank: 2

    积分
    50
    发表于 2020-5-12 06:48:36 | 显示全部楼层
    回复 支持 反对

    使用道具 举报

    该用户从未签到

    0

    主题

    1万

    帖子

    1万

    积分

    论坛元老

    Rank: 8Rank: 8

    积分
    12926
    发表于 2020-5-12 14:10:53 | 显示全部楼层
    楼主太厉害了!楼主,电影应该很好看我觉得蓝光电影下载真是个好地方!
    回复 支持 反对

    使用道具 举报

    该用户从未签到

    0

    主题

    7090

    帖子

    7047

    积分

    论坛元老

    Rank: 8Rank: 8

    积分
    7047
    发表于 2020-5-12 14:11:38 | 显示全部楼层
    感谢楼主的无私分享!要想蓝光高清电影网好 就靠你我他
    回复 支持 反对

    使用道具 举报

    该用户从未签到

    0

    主题

    337

    帖子

    320

    积分

    中级会员

    Rank: 3Rank: 3

    积分
    320
    发表于 2020-5-13 02:53:06 | 显示全部楼层
    回复 支持 反对

    使用道具 举报

    该用户从未签到

    0

    主题

    1万

    帖子

    1万

    积分

    论坛元老

    Rank: 8Rank: 8

    积分
    18946
    发表于 2020-5-13 04:28:54 | 显示全部楼层

    非常精彩的电影,下来收藏,感谢楼主
    回复 支持 反对

    使用道具 举报

    懒得打字嘛,点击右侧快捷回复 【右侧内容,后台自定义】
    您需要登录后才可以回帖 登录 | 立即注册

    本版积分规则

    郑重声明,本站所有作品片源来自互联网公开渠道,均为网友上传交流学习,影视版权均归原电影公司所有,如有侵犯版权,请与 2322694662@qq.com 联系,我们将立即删除。

    小黑屋|手机版|Archiver|百度统计|投诉|蓝光电影下载

    GMT+8, 2020-7-13 12:03 , Processed in 0.042429 second(s), 21 queries , Gzip On, MemCached On.

    Powered by Discuz! X3.4

    © 2001-2013 Comsenz Inc.

    快速回复 返回顶部 返回列表