快捷导航
查看: 938|回复: 42

[剧情] 利刃出鞘/上流谋杀案 Knives.Out.2019.1080p.BluRay.x264-YOL0W 8.76GB

[复制链接]
  • TA的每日心情
    开心
    2020-2-15 21:32
  • 签到天数: 240 天

    [LV.8]以坛为家I

    1万

    主题

    1万

    帖子

    7万

    积分

    管理员

    蓝光君

    Rank: 9Rank: 9Rank: 9

    积分
    77260

    活跃会员热心会员推广达人突出贡献优秀版主荣誉管理论坛元老

    QQ
    发表于 2020-6-10 22:13:17 | 显示全部楼层 |阅读模式



    利刃出鞘/上流谋杀案 Knives.Out.2019.1080p.BluRay.x264-YOL0W 8.76GB-1.png


    译  名 利刃出鞘 / 上流谋杀案 / 亮剑 / 出鞘 / 神探白朗:福比利大宅谋杀案(港) / 致命遗产 / 锋回路转(台)
    片  名 Knives Out
    年  代 2019
    产  地 美国
    类  别 剧情 / 喜剧 / 悬疑 / 犯罪
    语  言 英语 / 西班牙语
    上映日期 2019-09-07(多伦多电影节) / 2019-11-27(美国) / 2019-11-29(中国大陆)
    IMDb评分  8.0/10 from 142299 users
    IMDb链接  https://www.imdb.com/title/tt8946378
    豆瓣评分 8.2/10 from 290382 users
    豆瓣链接 https://movie.douban.com/subject/30318116/
    片  长 130分钟
    导  演 莱恩·约翰逊 Rian Johnson
    编  剧 莱恩·约翰逊 Rian Johnson
    主  演 丹尼尔·克雷格 Daniel Craig
           安娜·德·阿玛斯 Ana de Armas
           克里斯·埃文斯 Chris Evans
           杰米·李·柯蒂斯 Jamie Lee Curtis
           迈克尔·珊农 Michael Shannon
           唐·约翰逊 Don Johnson
           托妮·科莱特 Toni Collette
           勒凯斯·斯坦菲尔德 Lakeith Stanfield
           克里斯托弗·普卢默 Christopher Plummer
           凯瑟琳·兰福德 Katherine Langford
           杰登·马泰尔 Jaeden Martell
           瑞琪·琳德赫姆 Riki Lindhome
           艾迪·帕特森 Edi Patterson
           弗兰克·奥兹 Frank Oz
           K·卡兰 K Callan
           诺阿·西甘 Noah Segan
           M·埃梅特·沃尔什 M. Emmet Walsh
           玛琳娜·福特 Marlene Forte
           劳尔·卡斯提洛 Raúl Castillo
           雪莉·罗德里格斯 Shyrley Rodriguez
           约瑟夫·高登-莱维特 Joseph Gordon-Levitt
           加布里埃尔·洛莱斯 Gabrielle Lorthe


    标  签 悬疑 | 推理 | 美国 | 犯罪 | 黑色幽默 | 侦探 | 剧情 | 2019

    简  介  

      富豪小说家哈兰·斯隆比在自己85岁生日第二天,被发现在自家庄园离奇自杀,遗留了亿万遗产。久负盛名的大侦探布兰科(丹尼尔·克雷格饰)突然被匿名人士雇佣调查此案真相。同时,哈兰的孙子兰森(克里斯·埃文斯饰)也正在秘密调查此案。当布兰科和哈兰·斯隆比家族的其他人对谈时, 他发现事情并没有想象中那么简单。
      哈兰家族没有表面上那么和睦,每个人都有着不可告人的秘密,每个人都想得到遗产……究竟这起命案是自杀还是他杀?似乎每个人都有嫌疑。随着一位遗产继承人的意外亮相,真相谜底渐渐浮出水面……

    获奖情况  

      第92届奥斯卡金像奖(2020)
      最佳原创剧本(提名) 莱恩·约翰逊

      第77届金球奖(2020)
      电影类 最佳音乐/喜剧片(提名)
      电影类 音乐/喜剧片最佳男主角(提名) 丹尼尔·克雷格
      电影类 音乐/喜剧片最佳女主角(提名) 安娜·德·阿玛斯

      第73届英国电影学院奖(2020)
      电影奖 最佳原创剧本(提名) 莱恩·约翰逊

      第72届美国编剧工会奖(2020)
      电影奖 最佳原创剧本(提名) 莱恩·约翰逊

      第31届美国制片人工会奖(2020)
      最佳电影制片人奖(提名)

      第70届美国剪辑工会奖(2020)
      音乐/喜剧片最佳剪辑(提名) 鲍勃·达克萨

      第24届美国艺术指导工会奖(2020)
      电影奖 最佳当代电影艺术指导(提名) 大卫·格兰克

      第22届美国服装设计工会奖(2020)
      现代电影最佳服装设计 珍妮·伊根

      第91届美国国家评论协会奖(2019)
      最佳群戏
      年度佳片

      第25届美国评论家选择电影奖(2020)
      最佳群戏(提名)
      最佳喜剧片(提名)
      最佳原创剧本(提名) 莱恩·约翰逊

      第20届美国电影学会奖(2019)
      年度佳片

      第24届金卫星奖(2020)
      电影部门 最佳喜剧/音乐片(提名)
      电影部门 喜剧/音乐片最佳男主角(提名) 丹尼尔·克雷格
      电影部门 喜剧/音乐片最佳女主角(提名) 安娜·德·阿玛斯
      电影最佳群像

      第18届华盛顿影评人协会奖(2019)
      最佳群戏

      第40届伦敦影评人协会奖(2020)
      年度电影(提名)

      第32届芝加哥影评人协会奖(2019)
      最佳原创剧本(提名) 莱恩·约翰逊
      最佳艺术指导(提名)

      第4届亚特兰大影评人协会奖(2019)
      十佳影片

      第23届美国在线影评人协会奖(2020)
      最佳影片(提名)
      最佳原创剧本(提名) 莱恩·约翰逊

      第6届豆瓣电影年度榜单(2019)
      评分最高的外语电影(提名)
      评分最高的喜剧片(提名)
    1. Video
    2. ID                                       : 1
    3. Format                                   : AVC
    4. Format/Info                              : Advanced Video Codec
    5. Format profile                           : High@L4
    6. Format settings                          : CABAC / 4 Ref Frames
    7. Format settings, CABAC                   : Yes
    8. Format settings, Reference frames        : 4 frames
    9. Codec ID                                 : V_MPEG4/ISO/AVC
    10. Duration                                 : 2 h 10 min
    11. Bit rate                                 : 8 966 kb/s
    12. Width                                    : 1 920 pixels
    13. Height                                   : 1 040 pixels
    14. Display aspect ratio                     : 1.85:1
    15. Frame rate mode                          : Constant
    16. Frame rate                               : 23.976 (24000/1001) FPS
    17. Color space                              : YUV
    18. Chroma subsampling                       : 4:2:0
    19. Bit depth                                : 8 bits
    20. Scan type                                : Progressive
    21. Bits/(Pixel*Frame)                       : 0.187
    22. Stream size                              : 8.16 GiB (93%)
    23. Writing library                          : x264 core 159 r2991 1771b55
    24. Encoding settings                        : cabac=1 / ref=4 / deblock=1:-3:-3 / analyse=0x3:0x133 / me=umh / subme=7 / psy=1 / psy_rd=1.00:0.00 / mixed_ref=1 / me_range=16 / chroma_me=1 / trellis=2 / 8x8dct=1 / cqm=0 / deadzone=21,11 / fast_pskip=1 / chroma_qp_offset=-2 / threads=16 / lookahead_threads=2 / sliced_threads=0 / nr=0 / decimate=1 / interlaced=0 / bluray_compat=0 / constrained_intra=0 / bframes=3 / b_pyramid=2 / b_adapt=2 / b_bias=0 / direct=3 / weightb=1 / open_gop=0 / weightp=2 / keyint=250 / keyint_min=23 / scenecut=40 / intra_refresh=0 / rc_lookahead=50 / rc=2pass / mbtree=1 / bitrate=8966 / ratetol=1.0 / qcomp=0.60 / qpmin=0 / qpmax=69 / qpstep=4 / cplxblur=20.0 / qblur=0.5 / ip_ratio=1.40 / aq=1:1.00
    25. Language                                 : English
    26. Default                                  : Yes
    27. Forced                                   : No
    28. Color range                              : Limited
    29. Matrix coefficients                      : BT.709

    30. Audio
    31. ID                                       : 2
    32. Format                                   : AC-3
    33. Format/Info                              : Audio Coding 3
    34. Commercial name                          : Dolby Digital
    35. Codec ID                                 : A_AC3
    36. Duration                                 : 2 h 10 min
    37. Bit rate mode                            : Constant
    38. Bit rate                                 : 640 kb/s
    39. Channel(s)                               : 6 channels
    40. Channel layout                           : L R C LFE Ls Rs
    41. Sampling rate                            : 48.0 kHz
    42. Frame rate                               : 31.250 FPS (1536 SPF)
    43. Bit depth                                : 16 bits
    44. Compression mode                         : Lossy
    45. Stream size                              : 596 MiB (7%)
    46. Title                                    : English
    47. Language                                 : English
    48. Service kind                             : Complete Main
    49. Default                                  : Yes
    50. Forced                                   : No
    复制代码

    利刃出鞘/上流谋杀案 Knives.Out.2019.1080p.BluRay.x264-YOL0W 8.76GB-2.png


    本帖隐藏的内容需要注册登陆才可浏览,您需要注册才可浏览,点击这里注册



    大中午的快困死蓝光君了
    回复

    使用道具 举报

    该用户从未签到

    0

    主题

    2万

    帖子

    1万

    积分

    论坛元老

    Rank: 8Rank: 8

    积分
    17501
    发表于 2020-6-10 22:13:30 | 显示全部楼层
    楼主太厉害了!楼主,电影应该很好看我觉得蓝光电影下载真是个好地方!
    回复 支持 反对

    使用道具 举报

  • TA的每日心情
    开心
    2020-6-11 04:42
  • 签到天数: 5 天

    [LV.2]偶尔看看I

    0

    主题

    11

    帖子

    46

    积分

    新手上路

    Rank: 1

    积分
    46
    发表于 2020-6-11 04:46:30 | 显示全部楼层
    回复 支持 反对

    使用道具 举报

    该用户从未签到

    0

    主题

    944

    帖子

    828

    积分

    高级会员

    Rank: 4

    积分
    828
    发表于 2020-6-11 04:46:30 | 显示全部楼层
    回复 支持 反对

    使用道具 举报

    该用户从未签到

    0

    主题

    2万

    帖子

    1万

    积分

    论坛元老

    Rank: 8Rank: 8

    积分
    17501
    发表于 2020-6-11 04:46:30 | 显示全部楼层
    回复 支持 反对

    使用道具 举报

    该用户从未签到

    0

    主题

    119

    帖子

    -33

    积分

    限制会员

    积分
    -33
    发表于 2020-6-11 14:22:28 | 显示全部楼层
    感谢楼主的无私分享!要想蓝光高清电影网好 就靠你我他
    回复 支持 反对

    使用道具 举报

    该用户从未签到

    0

    主题

    2万

    帖子

    1万

    积分

    论坛元老

    Rank: 8Rank: 8

    积分
    17501
    发表于 2020-6-11 19:03:34 | 显示全部楼层
    回复 支持 反对

    使用道具 举报

    该用户从未签到

    0

    主题

    2万

    帖子

    1万

    积分

    论坛元老

    Rank: 8Rank: 8

    积分
    17501
    发表于 2020-6-12 00:19:26 | 显示全部楼层

    非常精彩的电影,下来收藏,感谢楼主
    回复 支持 反对

    使用道具 举报

    该用户从未签到

    0

    主题

    2179

    帖子

    1796

    积分

    金牌会员

    Rank: 6Rank: 6

    积分
    1796
    发表于 2020-6-12 00:19:37 | 显示全部楼层
    回复 支持 反对

    使用道具 举报

    该用户从未签到

    0

    主题

    119

    帖子

    -33

    积分

    限制会员

    积分
    -33
    发表于 2020-6-12 21:15:07 | 显示全部楼层

    是个好电影!必须要看的!多谢分享!
    回复 支持 反对

    使用道具 举报

    懒得打字嘛,点击右侧快捷回复 【右侧内容,后台自定义】
    您需要登录后才可以回帖 登录 | 立即注册

    本版积分规则

    郑重声明,本站所有作品片源来自互联网公开渠道,均为网友上传交流学习,影视版权均归原电影公司所有,如有侵犯版权,请与 2322694662@qq.com 联系,我们将立即删除。

    小黑屋|手机版|Archiver|百度统计|投诉|蓝光电影下载

    GMT+8, 2021-2-27 05:30 , Processed in 0.061005 second(s), 23 queries , Gzip On, MemCached On.

    Powered by Discuz! X3.4

    © 2001-2013 Comsenz Inc.

    快速回复 返回顶部 返回列表