快捷导航
查看: 2007|回复: 15

[剧情] [1972][美国][剧情][猛虎过山/杰里迈亚·约翰逊][720P-5.46G][MKV]DTS

[复制链接]
  • TA的每日心情
    开心
    2021-6-20 17:46
  • 签到天数: 247 天

    [LV.8]以坛为家I

    1万

    主题

    1万

    帖子

    12万

    积分

    管理员

    蓝光君

    Rank: 9Rank: 9Rank: 9

    积分
    123195

    活跃会员热心会员推广达人突出贡献优秀版主荣誉管理论坛元老

    QQ
    发表于 2015-9-17 22:09:16 | 显示全部楼层 |阅读模式
    [1972][美国][剧情][猛虎过山/杰里迈亚·约翰逊][720P-5.46G][MKV]DTS
    1.jpg
    ◎影片基本信息
    大小: 5.46G
    清晰度: 720P
    视频: MKV
    豆瓣评分: 7.7
    导演: 西德尼·波拉克
    编剧: 约翰·米利厄斯 / 爱德华·安哈尔特
    主演: 罗伯特·雷德福 / Will Geer / Delle Bolton / 奥琳·安·麦克莱瑞
    类型: 剧情 / 西部
    制片国家/地区: 美国
    语言: 英语
    上映日期: 1972-09-10
    片长: 108 分钟 / 116 分钟(long version)
    又名: 杰里迈亚·约翰逊
    影片: Jeremiah.Johnson.1972.720p.BluRay.x264-HD4U

    ◎剧情简介
           厌倦城市的杰诺米强生,决定前往宁静的洛矶山,体验亲近自然的生活,在山中的第一个冬几乎要他的命,在饥寒交迫下遇见山中的老猎人,他从老猎人身上学到人与人相处之道。
    -------------------------
    1. General
    2. Complete name                  : E:\高清电影\720p.猛虎出山\jeremiah.johnson.1972.720p.bluray.x264-hd4u.mkv
    3. Format                         : Matroska
    4. Format version                 : Version 2
    5. File size                      : 5.46 GiB
    6. Duration                       : 1h 55mn
    7. Overall bit rate               : 6 749 Kbps
    8. Writing application            : mkvmerge v4.1.1 ('Bouncin' Back') built on Jul  3 2010 22:54:08
    9. Writing library                : libebml v1.0.0 + libmatroska v1.0

    10. Video
    11. ID                             : 1
    12. Format                         : AVC
    13. Format/Info                    : Advanced Video Codec
    14. Format profile                 : High@L4.1
    15. Format settings, CABAC         : Yes
    16. Format settings, ReFrames      : 5 frames
    17. Codec ID                       : V_MPEG4/ISO/AVC
    18. Duration                       : 1h 55mn
    19. Bit rate                       : 5 238 Kbps
    20. Width                          : 1 280 pixels
    21. Height                         : 536 pixels
    22. Display aspect ratio           : 2.40:1
    23. Frame rate mode                : Constant
    24. Frame rate                     : 23.976 fps
    25. Color space                    : YUV
    26. Chroma subsampling             : 4:2:0
    27. Bit depth                      : 8 bits
    28. Scan type                      : Progressive
    29. Bits/(Pixel*Frame)             : 0.318
    30. Stream size                    : 4.13 GiB (76%)
    31. Writing library                : x264 core 122 r2184 5c85e0a
    32. Encoding settings              : cabac=1 / ref=5 / deblock=1:0:0 / analyse=0x3:0x133 / me=umh / subme=7 / psy=1 / psy_rd=1.00:0.00 / mixed_ref=1 / me_range=16 / chroma_me=1 / trellis=1 / 8x8dct=1 / cqm=0 / deadzone=21,11 / fast_pskip=0 / chroma_qp_offset=-2 / threads=12 / sliced_threads=0 / nr=0 / decimate=1 / interlaced=0 / bluray_compat=0 / constrained_intra=0 / bframes=3 / b_pyramid=2 / b_adapt=1 / b_bias=0 / direct=1 / weightb=1 / open_gop=0 / weightp=2 / keyint=250 / keyint_min=23 / scenecut=40 / intra_refresh=0 / rc_lookahead=40 / rc=2pass / mbtree=1 / bitrate=5238 / ratetol=1.0 / qcomp=0.60 / qpmin=0 / qpmax=69 / qpstep=4 / cplxblur=20.0 / qblur=0.5 / ip_ratio=1.40 / aq=1:1.00
    33. Language                       : English
    34. Default                        : Yes
    35. Forced                         : No

    36. Audio
    37. ID                             : 2
    38. Format                         : DTS
    39. Format/Info                    : Digital Theater Systems
    40. Mode                           : 16
    41. Format settings, Endianness    : Big
    42. Codec ID                       : A_DTS
    43. Duration                       : 1h 55mn
    44. Bit rate mode                  : Constant
    45. Bit rate                       : 1 509 Kbps
    46. Channel(s)                     : 6 channels
    47. Channel positions              : Front: L C R, Side: L R, LFE
    48. Sampling rate                  : 48.0 KHz
    49. Bit depth                      : 24 bits
    50. Compression mode               : Lossy
    51. Stream size                    : 1.22 GiB (22%)
    52. Language                       : English
    53. Default                        : Yes
    54. Forced                         : No

    55. Text
    56. ID                             : 3
    57. Format                         : UTF-8
    58. Codec ID                       : S_TEXT/UTF8
    59. Codec ID/Info                  : UTF-8 Plain Text
    60. Language                       : English
    61. Default                        : No
    62. Forced                         : No

    63. Menu
    64. 00:00:00.000                   : en:00:00:00.000
    65. 00:03:04.184                   : en:00:03:04.184
    66. 00:07:54.766                   : en:00:07:54.766
    67. 00:10:29.504                   : en:00:10:29.504
    68. 00:13:07.620                   : en:00:13:07.620
    69. 00:15:29.470                   : en:00:15:29.470
    70. 00:17:58.619                   : en:00:17:58.619
    71. 00:21:59.860                   : en:00:21:59.860
    72. 00:27:29.231                   : en:00:27:29.231
    73. 00:30:50.599                   : en:00:30:50.599
    74. 00:35:35.300                   : en:00:35:35.300
    75. 00:39:54.601                   : en:00:39:54.601
    76. 00:41:53.386                   : en:00:41:53.386
    77. 00:49:36.098                   : en:00:49:36.098
    78. 00:54:38.650                   : en:00:54:38.650
    79. 01:04:50.762                   : en:01:04:50.762
    80. 01:08:55.715                   : en:01:08:55.715
    81. 01:11:39.837                   : en:01:11:39.837
    82. 01:14:54.407                   : en:01:14:54.407
    83. 01:17:44.660                   : en:01:17:44.660
    84. 01:19:12.247                   : en:01:19:12.247
    85. 01:23:20.370                   : en:01:23:20.370
    86. 01:27:53.101                   : en:01:27:53.101
    87. 01:37:34.807                   : en:01:37:34.807
    88. 01:43:09.725                   : en:01:43:09.725
    89. 01:45:23.651                   : en:01:45:23.651
    90. 01:49:16.967                   : en:01:49:16.967
    91. 01:53:33.515                   : en:01:53:33.515
    92. 01:55:11.071                   : en:01:55:11.071

    复制代码
    ------------------------
    ◎精彩剧照
    4.jpg 3.jpg 2.jpg 1.jpg
    -------------------------
    [以上高清电影剧照来自互联网,不代表此片高清剧照]
    郑重声明:本站提供的所有高清电影作品均是在网上搜集,任何涉及商业盈利目的均不得使用,否则产生的一切后果将由您自己承担!本站将不对本站的任何内容负任何法律责任!该下载内容仅做宽带测试使用,请在下载后24小时内删除。请购买正
    版!
    -------------------------
    ◎种子下载地址
    游客,如果您要查看本帖隐藏内容请回复

    大中午的快困死蓝光君了
    回复

    使用道具 举报

    该用户从未签到

    0

    主题

    3048

    帖子

    3076

    积分

    论坛元老

    Rank: 8Rank: 8

    积分
    3076
    发表于 2018-11-29 02:06:17 | 显示全部楼层
    回复 支持 反对

    使用道具 举报

    该用户从未签到

    0

    主题

    3048

    帖子

    3076

    积分

    论坛元老

    Rank: 8Rank: 8

    积分
    3076
    发表于 2019-3-14 18:52:13 | 显示全部楼层
    回复 支持 反对

    使用道具 举报

    该用户从未签到

    0

    主题

    353

    帖子

    212

    积分

    中级会员

    Rank: 3Rank: 3

    积分
    212
    发表于 2019-6-7 13:37:35 | 显示全部楼层
    回复 支持 反对

    使用道具 举报

    该用户从未签到

    0

    主题

    1万

    帖子

    1万

    积分

    论坛元老

    Rank: 8Rank: 8

    积分
    17623
    发表于 2019-6-9 14:13:24 | 显示全部楼层

    非常精彩的电影,下来收藏,感谢楼主
    回复 支持 反对

    使用道具 举报

    该用户从未签到

    0

    主题

    290

    帖子

    351

    积分

    中级会员

    Rank: 3Rank: 3

    积分
    351
    发表于 2019-6-14 18:18:51 | 显示全部楼层
    回复 支持 反对

    使用道具 举报

    该用户从未签到

    0

    主题

    777

    帖子

    824

    积分

    高级会员

    Rank: 4

    积分
    824
    发表于 2019-6-20 16:25:30 | 显示全部楼层

    是个好电影!必须要看的!多谢分享!
    回复 支持 反对

    使用道具 举报

    该用户从未签到

    0

    主题

    1134

    帖子

    1210

    积分

    金牌会员

    Rank: 6Rank: 6

    积分
    1210
    发表于 2019-6-25 18:09:01 | 显示全部楼层
    回复 支持 反对

    使用道具 举报

    该用户从未签到

    0

    主题

    1176

    帖子

    1191

    积分

    金牌会员

    Rank: 6Rank: 6

    积分
    1191
    发表于 2019-7-30 05:02:28 | 显示全部楼层
    感谢楼主的无私分享!要想蓝光高清电影网好 就靠你我他
    回复 支持 反对

    使用道具 举报

    懒得打字嘛,点击右侧快捷回复 【右侧内容,后台自定义】
    您需要登录后才可以回帖 登录 | 立即注册

    本版积分规则

    郑重声明,本站所有作品片源来自互联网公开渠道,均为网友上传交流学习,影视版权均归原电影公司所有,如有侵犯版权,请与 2322694662@qq.com 联系,我们将立即删除。

    小黑屋|手机版|Archiver|百度统计|投诉|蓝光电影下载

    GMT+8, 2021-9-26 04:42 , Processed in 0.141281 second(s), 39 queries , Gzip On, MemCached On.

    Powered by Discuz! X3.4

    © 2001-2013 Comsenz Inc.

    快速回复 返回顶部 返回列表