快捷导航
查看: 927|回复: 59

[喜剧] 冰雪奇缘2 Frozen.II.2019.1080p.BluRay.x264.DTS-HD.MA.7.1-FGT 8.16GB

  [复制链接]
  • TA的每日心情
    开心
    2020-2-15 21:32
  • 签到天数: 240 天

    [LV.8]以坛为家I

    1万

    主题

    1万

    帖子

    6万

    积分

    管理员

    蓝光君

    Rank: 9Rank: 9Rank: 9

    积分
    62681

    活跃会员热心会员推广达人突出贡献优秀版主荣誉管理论坛元老

    QQ
    发表于 2020-6-26 13:03:24 | 显示全部楼层 |阅读模式


    冰雪奇缘2 Frozen.II.2019.1080p.BluRay.x264.DTS-HD.MA.7.1-FGT 8.16GB-1.png


    译  名 冰雪奇缘2 / Frozen 2 / 魔雪奇缘2(港)
    片  名 Frozen II
    年  代 2019
    产  地 美国
    类  别 喜剧 / 动画 / 歌舞 / 冒险
    语  言 英语
    上映日期 2019-11-22(美国/中国大陆)
    IMDb评分  7.2/10 from 65728 users
    IMDb链接  https://www.imdb.com/title/tt4520988
    豆瓣评分 7.2/10 from 192944 users
    豆瓣链接 https://movie.douban.com/subject/25887288/
    片  长 104分钟
    导  演 克里斯·巴克 Chris Buck / 珍妮弗·李 Jennifer Lee
    编  剧 珍妮弗·李 Jennifer Lee / 克里斯·巴克 Chris Buck / 马克·史密斯 Marc Smith / 克里斯汀·安德森·洛佩兹 Kristen Anderson-Lopez / 罗伯特·洛佩兹 Robert Lopez
    主  演 克里斯汀·贝尔 Kristen Bell
           伊迪娜·门泽尔 Idina Menzel
           乔什·加德 Josh Gad
           乔纳森·格罗夫 Jonathan Groff
           杰森·雷特 Jason Ritter
           埃文·蕾切尔·伍德 Evan Rachel Wood
           斯特林·K·布朗 Sterling K. Brown
           玛莎·普林顿 Martha Plimpton
           圣蒂诺·方塔纳 Santino Fontana
           阿尔弗雷德·莫里纳 Alfred Molina
           瑞秋·马休斯 Rachel Matthews


    标  签 迪士尼 | 动画 | 童话 | 美国 | 音乐 | 2019 | 奇幻 | 魔幻

    简  介  

      2013年迪士尼《冰雪奇缘》续集。安娜、艾莎一伙人将深入神秘魔法森林,发现到艾伦戴尔王国长久以来深藏的秘密,一个有着风火水土元素的魔法国度,以及艾莎魔法来源的真相。

    获奖情况  

      第92届奥斯卡金像奖(2020)
      最佳原创歌曲(提名) 克里斯汀·安德森·洛佩兹 / 罗伯特·洛佩兹

      第77届金球奖(2020)
      电影类 最佳动画长片(提名)
      电影类 最佳原创歌曲(提名)

      第73届英国电影学院奖(2020)
      电影奖 最佳动画片(提名)

      第47届动画安妮奖(2020)
      最佳动画长片(提名)
      最佳导演(提名) 克里斯·巴克 / 珍妮弗·李
      最佳编剧(提名) 珍妮弗·李
      最佳配音 乔什·加德
      最佳配乐(提名) 弗罗德·弗杰尔海姆 / 克里斯汀·安德森·洛佩兹 / 罗伯特·洛佩兹 / 克里斯托弗·贝克
      最佳动画角色(提名)
      最佳角色设计(提名)
      最佳动画效果

      第31届美国制片人工会奖(2020)
      最佳动画片制片人奖(提名)

      第70届美国剪辑工会奖(2020)
      动画片最佳剪辑(提名) 杰夫·德拉海姆

      第24届美国艺术指导工会奖(2020)
      电影奖 最佳动画电影艺术指导(提名) Michael Giaimo

      第67届美国音效剪辑协会奖(2020)
      金卷轴奖 最佳动画片音效剪辑(提名)
      金卷轴奖 最佳音乐片音乐剪辑(提名)

      第18届美国视觉效果协会奖(2020)
      最佳动画电影视觉效果(提名)
      最佳动画电影CG动画角色(提名)
      最佳动画电影CG背景(提名)
      最佳动画电影模拟动画效果

      第56届美国声音效果协会奖(2020)
      动画电影最佳音效(提名)

      第25届美国评论家选择电影奖(2020)
      最佳动画片(提名)
      最佳歌曲(提名)

      第24届金卫星奖(2020)
      电影部门 最佳原创歌曲(提名)

      第32届芝加哥影评人协会奖(2019)
      最佳动画片(提名)

      第23届美国在线影评人协会奖(2020)
      最佳动画片(提名)
    1. Video
    2. ID                                       : 1
    3. Format                                   : AVC
    4. Format/Info                              : Advanced Video Codec
    5. Format profile                           : High@L4
    6. Format settings                          : CABAC / 5 Ref Frames
    7. Format settings, CABAC                   : Yes
    8. Format settings, Reference frames        : 5 frames
    9. Codec ID                                 : V_MPEG4/ISO/AVC
    10. Duration                                 : 1 h 43 min
    11. Bit rate                                 : 6 061 kb/s
    12. Width                                    : 1 920 pixels
    13. Height                                   : 808 pixels
    14. Display aspect ratio                     : 2.40:1
    15. Frame rate mode                          : Constant
    16. Frame rate                               : 23.976 (24000/1001) FPS
    17. Color space                              : YUV
    18. Chroma subsampling                       : 4:2:0
    19. Bit depth                                : 8 bits
    20. Scan type                                : Progressive
    21. Bits/(Pixel*Frame)                       : 0.163
    22. Stream size                              : 4.37 GiB (54%)
    23. Title                                    : Frozen.II.2019.1080p.BluRay.x264.DTS-HD.MA.7.1-FGT
    24. Writing library                          : x264 core 159 r2991 1771b55
    25. Encoding settings                        : cabac=1 / ref=5 / deblock=1:-3:-3 / analyse=0x3:0x133 / me=umh / subme=7 / psy=1 / psy_rd=1.00:0.00 / mixed_ref=1 / me_range=16 / chroma_me=1 / trellis=2 / 8x8dct=1 / cqm=0 / deadzone=21,11 / fast_pskip=1 / chroma_qp_offset=-2 / threads=16 / lookahead_threads=2 / sliced_threads=0 / nr=0 / decimate=1 / interlaced=0 / bluray_compat=0 / constrained_intra=0 / bframes=3 / b_pyramid=2 / b_adapt=2 / b_bias=0 / direct=3 / weightb=1 / open_gop=0 / weightp=2 / keyint=250 / keyint_min=23 / scenecut=40 / intra_refresh=0 / rc_lookahead=50 / rc=2pass / mbtree=1 / bitrate=6061 / ratetol=1.0 / qcomp=0.60 / qpmin=0 / qpmax=69 / qpstep=4 / cplxblur=20.0 / qblur=0.5 / ip_ratio=1.40 / aq=1:1.00
    26. Language                                 : English
    27. Default                                  : Yes
    28. Forced                                   : No
    29. Color range                              : Limited
    30. Matrix coefficients                      : BT.709

    31. Audio
    32. ID                                       : 2
    33. Format                                   : DTS XLL
    34. Format/Info                              : Digital Theater Systems
    35. Commercial name                          : DTS-HD Master Audio
    36. Codec ID                                 : A_DTS
    37. Duration                                 : 1 h 43 min
    38. Bit rate mode                            : Variable
    39. Bit rate                                 : 5 229 kb/s
    40. Channel(s)                               : 8 channels
    41. Channel layout                           : C L R LFE Lb Rb Lss Rss
    42. Sampling rate                            : 48.0 kHz
    43. Frame rate                               : 93.750 FPS (512 SPF)
    44. Bit depth                                : 24 bits
    45. Compression mode                         : Lossless
    46. Stream size                              : 3.77 GiB (46%)
    47. Title                                    : Frozen.II.2019.1080p.BluRay.x264.DTS-HD.MA.7.1-FGT
    48. Language                                 : English
    49. Default                                  : Yes
    50. Forced                                   : No

    51. Text #1
    52. ID                                       : 3
    53. Format                                   : UTF-8
    54. Codec ID                                 : S_TEXT/UTF8
    55. Codec ID/Info                            : UTF-8 Plain Text
    56. Duration                                 : 1 h 41 min
    57. Bit rate                                 : 56 b/s
    58. Count of elements                        : 1560
    59. Stream size                              : 42.0 KiB (0%)
    60. Title                                    : English-SRT
    61. Language                                 : English
    62. Default                                  : Yes
    63. Forced                                   : No

    64. Text #2
    65. ID                                       : 4
    66. Format                                   : PGS
    67. Muxing mode                              : zlib
    68. Codec ID                                 : S_HDMV/PGS
    69. Codec ID/Info                            : Picture based subtitle format used on BDs/HD-DVDs
    70. Duration                                 : 1 h 41 min
    71. Bit rate                                 : 30.9 kb/s
    72. Count of elements                        : 2626
    73. Stream size                              : 22.5 MiB (0%)
    74. Title                                    : English-PGS
    75. Language                                 : English
    76. Default                                  : No
    77. Forced                                   : No

    78. Text #3
    79. ID                                       : 5
    80. Format                                   : PGS
    81. Muxing mode                              : zlib
    82. Codec ID                                 : S_HDMV/PGS
    83. Codec ID/Info                            : Picture based subtitle format used on BDs/HD-DVDs
    84. Duration                                 : 1 h 42 min
    85. Bit rate                                 : 44.6 kb/s
    86. Count of elements                        : 3874
    87. Stream size                              : 32.7 MiB (0%)
    88. Title                                    : English-SDH-PGS
    89. Language                                 : English
    90. Default                                  : No
    91. Forced                                   : No

    92. Menu
    93. 00:00:00.000                             : en:Chapter 01
    94. 00:05:42.592                             : en:Chapter 02
    95. 00:08:27.716                             : en:Chapter 03
    96. 00:15:01.400                             : en:Chapter 04
    97. 00:16:29.655                             : en:Chapter 05
    98. 00:21:25.117                             : en:Chapter 06
    99. 00:25:45.252                             : en:Chapter 07
    100. 00:29:08.914                             : en:Chapter 08
    101. 00:33:45.023                             : en:Chapter 09
    102. 00:40:27.216                             : en:Chapter 10
    103. 00:44:37.925                             : en:Chapter 11
    104. 00:47:42.318                             : en:Chapter 12
    105. 00:53:04.515                             : en:Chapter 13
    106. 00:55:27.241                             : en:Chapter 14
    107. 01:02:36.711                             : en:Chapter 15
    108. 01:09:57.527                             : en:Chapter 16
    109. 01:13:48.382                             : en:Chapter 17
    110. 01:19:26.637                             : en:Chapter 18
    111. 01:24:28.146                             : en:Chapter 19
    112. 01:31:17.263                             : en:Chapter 20
    复制代码

    冰雪奇缘2 Frozen.II.2019.1080p.BluRay.x264.DTS-HD.MA.7.1-FGT 8.16GB-2.png
    冰雪奇缘2 Frozen.II.2019.1080p.BluRay.x264.DTS-HD.MA.7.1-FGT 8.16GB-3.png
    冰雪奇缘2 Frozen.II.2019.1080p.BluRay.x264.DTS-HD.MA.7.1-FGT 8.16GB-4.png


    游客,如果您要查看本帖隐藏内容请回复



    大中午的快困死蓝光君了
    回复

    使用道具 举报

    该用户从未签到

    0

    主题

    794

    帖子

    705

    积分

    高级会员

    Rank: 4

    积分
    705
    发表于 2020-6-26 13:03:48 | 显示全部楼层
    回复 支持 反对

    使用道具 举报

    该用户从未签到

    0

    主题

    1万

    帖子

    1万

    积分

    论坛元老

    Rank: 8Rank: 8

    积分
    11882
    发表于 2020-6-26 18:03:34 | 显示全部楼层
    回复 支持 反对

    使用道具 举报

    该用户从未签到

    0

    主题

    1万

    帖子

    1万

    积分

    论坛元老

    Rank: 8Rank: 8

    积分
    17189
    发表于 2020-6-27 15:28:32 | 显示全部楼层
    感谢楼主的无私分享!要想蓝光高清电影网好 就靠你我他
    回复 支持 反对

    使用道具 举报

    该用户从未签到

    0

    主题

    643

    帖子

    574

    积分

    高级会员

    Rank: 4

    积分
    574
    发表于 2020-6-27 19:39:54 | 显示全部楼层
    楼主太厉害了!楼主,电影应该很好看我觉得蓝光电影下载真是个好地方!
    回复 支持 反对

    使用道具 举报

    该用户从未签到

    0

    主题

    1万

    帖子

    1万

    积分

    论坛元老

    Rank: 8Rank: 8

    积分
    17189
    发表于 2020-6-29 10:57:34 | 显示全部楼层
    回复 支持 反对

    使用道具 举报

    该用户从未签到

    0

    主题

    640

    帖子

    578

    积分

    高级会员

    Rank: 4

    积分
    578
    发表于 2020-6-29 13:37:19 | 显示全部楼层

    是个好电影!必须要看的!多谢分享!
    回复 支持 反对

    使用道具 举报

  • TA的每日心情
    开心
    2020-6-29 13:37
  • 签到天数: 1 天

    [LV.1]初来乍到

    0

    主题

    2

    帖子

    6

    积分

    新手上路

    Rank: 1

    积分
    6
    发表于 2020-6-29 13:38:39 | 显示全部楼层
    回复 支持 反对

    使用道具 举报

    该用户从未签到

    0

    主题

    1368

    帖子

    1221

    积分

    金牌会员

    Rank: 6Rank: 6

    积分
    1221
    发表于 2020-6-29 13:38:46 | 显示全部楼层

    非常精彩的电影,下来收藏,感谢楼主
    回复 支持 反对

    使用道具 举报

    该用户从未签到

    0

    主题

    1万

    帖子

    1万

    积分

    论坛元老

    Rank: 8Rank: 8

    积分
    11882
    发表于 2020-6-29 13:49:24 | 显示全部楼层
    回复 支持 反对

    使用道具 举报

    懒得打字嘛,点击右侧快捷回复 【右侧内容,后台自定义】
    您需要登录后才可以回帖 登录 | 立即注册

    本版积分规则

    郑重声明,本站所有作品片源来自互联网公开渠道,均为网友上传交流学习,影视版权均归原电影公司所有,如有侵犯版权,请与 2322694662@qq.com 联系,我们将立即删除。

    小黑屋|手机版|Archiver|百度统计|投诉|蓝光电影下载

    GMT+8, 2020-11-28 10:52 , Processed in 0.043967 second(s), 19 queries , Gzip On, MemCached On.

    Powered by Discuz! X3.4

    © 2001-2013 Comsenz Inc.

    快速回复 返回顶部 返回列表