快捷导航
查看: 2622|回复: 41

[喜剧] 冰雪奇缘2 Frozen.II.2019.720p.BluRay.x264-YOL0W 3.28GB

[复制链接]
  • TA的每日心情
    开心
    前天 17:46
  • 签到天数: 247 天

    [LV.8]以坛为家I

    1万

    主题

    1万

    帖子

    10万

    积分

    管理员

    蓝光君

    Rank: 9Rank: 9Rank: 9

    积分
    102476

    活跃会员热心会员推广达人突出贡献优秀版主荣誉管理论坛元老

    QQ
    发表于 2020-6-26 14:24:44 | 显示全部楼层 |阅读模式



    冰雪奇缘2 Frozen.II.2019.720p.BluRay.x264-YOL0W 3.28GB-1.png


    译  名 冰雪奇缘2 / Frozen 2 / 魔雪奇缘2(港)
    片  名 Frozen II
    年  代 2019
    产  地 美国
    类  别 喜剧 / 动画 / 歌舞 / 冒险
    语  言 英语
    上映日期 2019-11-22(美国/中国大陆)
    IMDb评分  7.2/10 from 65728 users
    IMDb链接  https://www.imdb.com/title/tt4520988
    豆瓣评分 7.2/10 from 192944 users
    豆瓣链接 https://movie.douban.com/subject/25887288/
    片  长 104分钟
    导  演 克里斯·巴克 Chris Buck / 珍妮弗·李 Jennifer Lee
    编  剧 珍妮弗·李 Jennifer Lee / 克里斯·巴克 Chris Buck / 马克·史密斯 Marc Smith / 克里斯汀·安德森·洛佩兹 Kristen Anderson-Lopez / 罗伯特·洛佩兹 Robert Lopez
    主  演 克里斯汀·贝尔 Kristen Bell
           伊迪娜·门泽尔 Idina Menzel
           乔什·加德 Josh Gad
           乔纳森·格罗夫 Jonathan Groff
           杰森·雷特 Jason Ritter
           埃文·蕾切尔·伍德 Evan Rachel Wood
           斯特林·K·布朗 Sterling K. Brown
           玛莎·普林顿 Martha Plimpton
           圣蒂诺·方塔纳 Santino Fontana
           阿尔弗雷德·莫里纳 Alfred Molina
           瑞秋·马休斯 Rachel Matthews


    标  签 迪士尼 | 动画 | 童话 | 美国 | 音乐 | 2019 | 奇幻 | 魔幻

    简  介  

      2013年迪士尼《冰雪奇缘》续集。安娜、艾莎一伙人将深入神秘魔法森林,发现到艾伦戴尔王国长久以来深藏的秘密,一个有着风火水土元素的魔法国度,以及艾莎魔法来源的真相。

    获奖情况  

      第92届奥斯卡金像奖(2020)
      最佳原创歌曲(提名) 克里斯汀·安德森·洛佩兹 / 罗伯特·洛佩兹

      第77届金球奖(2020)
      电影类 最佳动画长片(提名)
      电影类 最佳原创歌曲(提名)

      第73届英国电影学院奖(2020)
      电影奖 最佳动画片(提名)

      第47届动画安妮奖(2020)
      最佳动画长片(提名)
      最佳导演(提名) 克里斯·巴克 / 珍妮弗·李
      最佳编剧(提名) 珍妮弗·李
      最佳配音 乔什·加德
      最佳配乐(提名) 弗罗德·弗杰尔海姆 / 克里斯汀·安德森·洛佩兹 / 罗伯特·洛佩兹 / 克里斯托弗·贝克
      最佳动画角色(提名)
      最佳角色设计(提名)
      最佳动画效果

      第31届美国制片人工会奖(2020)
      最佳动画片制片人奖(提名)

      第70届美国剪辑工会奖(2020)
      动画片最佳剪辑(提名) 杰夫·德拉海姆

      第24届美国艺术指导工会奖(2020)
      电影奖 最佳动画电影艺术指导(提名) Michael Giaimo

      第67届美国音效剪辑协会奖(2020)
      金卷轴奖 最佳动画片音效剪辑(提名)
      金卷轴奖 最佳音乐片音乐剪辑(提名)

      第18届美国视觉效果协会奖(2020)
      最佳动画电影视觉效果(提名)
      最佳动画电影CG动画角色(提名)
      最佳动画电影CG背景(提名)
      最佳动画电影模拟动画效果

      第56届美国声音效果协会奖(2020)
      动画电影最佳音效(提名)

      第25届美国评论家选择电影奖(2020)
      最佳动画片(提名)
      最佳歌曲(提名)

      第24届金卫星奖(2020)
      电影部门 最佳原创歌曲(提名)

      第32届芝加哥影评人协会奖(2019)
      最佳动画片(提名)

      第23届美国在线影评人协会奖(2020)
      最佳动画片(提名)
    1. Video
    2. ID                                       : 1
    3. Format                                   : AVC
    4. Format/Info                              : Advanced Video Codec
    5. Format profile                           : High@L4
    6. Format settings                          : CABAC / 8 Ref Frames
    7. Format settings, CABAC                   : Yes
    8. Format settings, Reference frames        : 8 frames
    9. Codec ID                                 : V_MPEG4/ISO/AVC
    10. Duration                                 : 1 h 43 min
    11. Bit rate                                 : 3 027 kb/s
    12. Width                                    : 1 280 pixels
    13. Height                                   : 536 pixels
    14. Display aspect ratio                     : 2.40:1
    15. Frame rate mode                          : Constant
    16. Frame rate                               : 23.976 (24000/1001) FPS
    17. Color space                              : YUV
    18. Chroma subsampling                       : 4:2:0
    19. Bit depth                                : 8 bits
    20. Scan type                                : Progressive
    21. Bits/(Pixel*Frame)                       : 0.184
    22. Stream size                              : 2.18 GiB (67%)
    23. Writing library                          : x264 core 159 r2991 1771b55
    24. Encoding settings                        : cabac=1 / ref=8 / deblock=1:-3:-3 / analyse=0x3:0x133 / me=umh / subme=7 / psy=1 / psy_rd=1.00:0.00 / mixed_ref=1 / me_range=16 / chroma_me=1 / trellis=2 / 8x8dct=1 / cqm=0 / deadzone=21,11 / fast_pskip=1 / chroma_qp_offset=-2 / threads=16 / lookahead_threads=2 / sliced_threads=0 / nr=0 / decimate=1 / interlaced=0 / bluray_compat=0 / constrained_intra=0 / bframes=3 / b_pyramid=2 / b_adapt=2 / b_bias=0 / direct=3 / weightb=1 / open_gop=0 / weightp=2 / keyint=250 / keyint_min=23 / scenecut=40 / intra_refresh=0 / rc_lookahead=50 / rc=2pass / mbtree=1 / bitrate=3027 / ratetol=1.0 / qcomp=0.60 / qpmin=0 / qpmax=69 / qpstep=4 / cplxblur=20.0 / qblur=0.5 / ip_ratio=1.40 / aq=1:1.00
    25. Language                                 : English
    26. Default                                  : Yes
    27. Forced                                   : No
    28. Color range                              : Limited
    29. Matrix coefficients                      : BT.709

    30. Audio
    31. ID                                       : 2
    32. Format                                   : DTS
    33. Format/Info                              : Digital Theater Systems
    34. Codec ID                                 : A_DTS
    35. Duration                                 : 1 h 43 min
    36. Bit rate mode                            : Constant
    37. Bit rate                                 : 1 509 kb/s
    38. Channel(s)                               : 6 channels
    39. Channel layout                           : C L R Ls Rs LFE
    40. Sampling rate                            : 48.0 kHz
    41. Frame rate                               : 93.750 FPS (512 SPF)
    42. Bit depth                                : 24 bits
    43. Compression mode                         : Lossy
    44. Stream size                              : 1.09 GiB (33%)
    45. Title                                    : English
    46. Language                                 : English
    47. Default                                  : Yes
    48. Forced                                   : No

    49. Menu
    50. 00:00:00.000                             : en:Chapter 01
    51. 00:05:42.592                             : en:Chapter 02
    52. 00:08:27.716                             : en:Chapter 03
    53. 00:15:01.400                             : en:Chapter 04
    54. 00:16:29.655                             : en:Chapter 05
    55. 00:21:25.117                             : en:Chapter 06
    56. 00:25:45.252                             : en:Chapter 07
    57. 00:29:08.914                             : en:Chapter 08
    58. 00:33:45.023                             : en:Chapter 09
    59. 00:40:27.216                             : en:Chapter 10
    60. 00:44:37.925                             : en:Chapter 11
    61. 00:47:42.318                             : en:Chapter 12
    62. 00:53:04.515                             : en:Chapter 13
    63. 00:55:27.241                             : en:Chapter 14
    64. 01:02:36.711                             : en:Chapter 15
    65. 01:09:57.527                             : en:Chapter 16
    66. 01:13:48.382                             : en:Chapter 17
    67. 01:19:26.637                             : en:Chapter 18
    68. 01:24:28.146                             : en:Chapter 19
    69. 01:31:17.263                             : en:Chapter 20
    复制代码

    冰雪奇缘2 Frozen.II.2019.720p.BluRay.x264-YOL0W 3.28GB-2.png

    游客,如果您要查看本帖隐藏内容请回复



    大中午的快困死蓝光君了
    回复

    使用道具 举报

    该用户从未签到

    0

    主题

    970

    帖子

    626

    积分

    高级会员

    Rank: 4

    积分
    626
    发表于 2020-6-26 14:24:57 | 显示全部楼层
    回复 支持 反对

    使用道具 举报

    该用户从未签到

    0

    主题

    1万

    帖子

    1万

    积分

    论坛元老

    Rank: 8Rank: 8

    积分
    16777
    发表于 2020-6-26 15:16:07 | 显示全部楼层
    这个帖子不回对不起自己!我想我是一天也不能离开蓝光电影网
    回复 支持 反对

    使用道具 举报

    该用户从未签到

    0

    主题

    4202

    帖子

    3563

    积分

    论坛元老

    Rank: 8Rank: 8

    积分
    3563
    发表于 2020-6-26 15:16:07 | 显示全部楼层

    非常精彩的电影,下来收藏,感谢楼主
    回复 支持 反对

    使用道具 举报

    该用户从未签到

    0

    主题

    2万

    帖子

    2万

    积分

    论坛元老

    Rank: 8Rank: 8

    积分
    25556
    发表于 2020-6-26 23:16:33 | 显示全部楼层
    回复 支持 反对

    使用道具 举报

    该用户从未签到

    0

    主题

    4794

    帖子

    2186

    积分

    金牌会员

    Rank: 6Rank: 6

    积分
    2186
    发表于 2020-6-27 06:39:04 | 显示全部楼层
    感谢楼主的无私分享!要想蓝光高清电影网好 就靠你我他
    回复 支持 反对

    使用道具 举报

    该用户从未签到

    0

    主题

    2万

    帖子

    2万

    积分

    论坛元老

    Rank: 8Rank: 8

    积分
    25556
    发表于 2020-6-27 06:58:53 | 显示全部楼层

    是个好电影!必须要看的!多谢分享!
    回复 支持 反对

    使用道具 举报

    该用户从未签到

    0

    主题

    1万

    帖子

    1万

    积分

    论坛元老

    Rank: 8Rank: 8

    积分
    16777
    发表于 2020-7-2 09:45:27 | 显示全部楼层
    回复 支持 反对

    使用道具 举报

    该用户从未签到

    0

    主题

    1987

    帖子

    1500

    积分

    金牌会员

    Rank: 6Rank: 6

    积分
    1500
    发表于 2020-7-2 16:09:37 | 显示全部楼层
    回复 支持 反对

    使用道具 举报

    该用户从未签到

    0

    主题

    2246

    帖子

    2046

    积分

    金牌会员

    Rank: 6Rank: 6

    积分
    2046
    发表于 2020-7-2 16:18:25 | 显示全部楼层
    楼主太厉害了!楼主,电影应该很好看我觉得蓝光电影下载真是个好地方!
    回复 支持 反对

    使用道具 举报

    懒得打字嘛,点击右侧快捷回复 【右侧内容,后台自定义】
    您需要登录后才可以回帖 登录 | 立即注册

    本版积分规则

    郑重声明,本站所有作品片源来自互联网公开渠道,均为网友上传交流学习,影视版权均归原电影公司所有,如有侵犯版权,请与 2322694662@qq.com 联系,我们将立即删除。

    小黑屋|手机版|Archiver|百度统计|投诉|蓝光电影下载

    GMT+8, 2021-6-22 15:06 , Processed in 0.024696 second(s), 19 queries , Gzip On, MemCached On.

    Powered by Discuz! X3.4

    © 2001-2013 Comsenz Inc.

    快速回复 返回顶部 返回列表