快捷导航
查看: 4405|回复: 28

太平洋幽灵 Against.the.Sun.2014.LIMITED.1080p.BluRay.x264-USURY 6.56GB

[复制链接]
  • TA的每日心情
    开心
    昨天 23:39
  • 签到天数: 265 天

    [LV.8]以坛为家I

    1万

    主题

    713

    回帖

    20万

    积分

    管理员

    蓝光君

    Rank: 9Rank: 9Rank: 9

    积分
    207918

    活跃会员热心会员推广达人突出贡献优秀版主荣誉管理论坛元老

    QQ
    发表于 2021-2-11 08:15:40 | 显示全部楼层 |阅读模式
    1. 帖子完整标题:太平洋幽灵 Against.the.Sun.2014.LIMITED.1080p.BluRay.x264-USURY 6.56GB
    复制代码
    太平洋幽灵 Against.the.Sun.2014.LIMITED.1080p.BluRay.x264-USURY 6.56GB-1.jpeg


    译  名 太平洋幽灵 / Ghosts of the Pacific / 孤筏求生三十日
    片  名 Against the Sun
    年  代 2014
    产  地 美国
    类  别 冒险
    语  言 英语
    上映日期 2015-01-23(美国)
    IMDb评分  6.5/10 from 5174 users
    IMDb链接  https://www.imdb.com/title/tt2557276
    豆瓣评分 6.9/10 from 3194 users
    豆瓣链接 https://movie.douban.com/subject/25931607/
    片  长 100分钟
    导  演 Brian Falk
    编  剧 Brian Falk / Mark David Keegan
    主  演 汤姆·费尔顿 Tom Felton
           杰克·阿贝尔 Jake Abel
           加瑞特·迪拉胡特 Garret Dillahunt
           Nadia Parra


    标  签 求生 | 美国 | 真实故事改编 | 冒险 | 剧情 | 真实故事 | 美国电影 | 二战

    简  介   

      影片根据真实故事改编。1942年,二战正酣。1月16日,三名彼此陌生的士兵,加瑞特·迪拉胡特(《为奴十二年》《环形使者》)饰演的飞行员,费尔顿饰演的投弹手,以及杰克·阿贝尔(《波西·杰克逊与神火之盗 》)饰演的无线电通讯员,驾驶美国海军的一架飞机,出发执行侦察任务。
      飞机燃油耗尽,不得不在南太平洋上迫降。三人没有食物,没有水,没有任何补给,只有一艘4英尺宽,8英尺长的黄色救生筏,让他们在危机四伏的海面上漂流。他们必须互相扶持,战胜饥饿、风暴和鲨鱼袭击,想办法让救生筏驶向安全的陆地。
    1. Video
    2. ID                                       : 1
    3. Format                                   : AVC
    4. Format/Info                              : Advanced Video Codec
    5. Format profile                           : High@L4
    6. Format settings                          : CABAC / 4 Ref Frames
    7. Format settings, CABAC                   : Yes
    8. Format settings, Reference frames        : 4 frames
    9. Codec ID                                 : V_MPEG4/ISO/AVC
    10. Duration                                 : 1 h 39 min
    11. Bit rate                                 : 8 672 kb/s
    12. Width                                    : 1 920 pixels
    13. Height                                   : 1 080 pixels
    14. Display aspect ratio                     : 16:9
    15. Frame rate mode                          : Constant
    16. Frame rate                               : 23.976 FPS
    17. Color space                              : YUV
    18. Chroma subsampling                       : 4:2:0
    19. Bit depth                                : 8 bits
    20. Scan type                                : Progressive
    21. Bits/(Pixel*Frame)                       : 0.174
    22. Stream size                              : 5.89 GiB (90%)
    23. Writing library                          : x264 core 148 r2597 e86f3a1
    24. Encoding settings                        : cabac=1 / ref=4 / deblock=1:0:0 / analyse=0x3:0x133 / me=umh / subme=7 / psy=1 / psy_rd=1.00:0.00 / mixed_ref=1 / me_range=16 / chroma_me=1 / trellis=1 / 8x8dct=1 / cqm=0 / deadzone=21,11 / fast_pskip=0 / chroma_qp_offset=-2 / threads=6 / lookahead_threads=1 / sliced_threads=0 / nr=0 / decimate=1 / interlaced=0 / bluray_compat=0 / constrained_intra=0 / bframes=3 / b_pyramid=2 / b_adapt=2 / b_bias=0 / direct=3 / weightb=1 / open_gop=0 / weightp=2 / keyint=250 / keyint_min=23 / scenecut=40 / intra_refresh=0 / rc_lookahead=50 / rc=2pass / mbtree=1 / bitrate=8672 / ratetol=1.0 / qcomp=0.60 / qpmin=0 / qpmax=69 / qpstep=4 / cplxblur=20.0 / qblur=0.5 / ip_ratio=1.40 / aq=1:1.00
    25. Language                                 : English
    26. Default                                  : Yes
    27. Forced                                   : No

    28. Audio
    29. ID                                       : 2
    30. Format                                   : DTS
    31. Format/Info                              : Digital Theater Systems
    32. Codec ID                                 : A_DTS
    33. Duration                                 : 1 h 39 min
    34. Bit rate mode                            : Constant
    35. Bit rate                                 : 768 kb/s
    36. Channel(s)                               : 6 channels
    37. Channel layout                           : C L R Ls Rs LFE
    38. Sampling rate                            : 48.0 kHz
    39. Frame rate                               : 93.750 FPS (512 SPF)
    40. Bit depth                                : 24 bits
    41. Compression mode                         : Lossy
    42. Stream size                              : 546 MiB (8%)
    43. Language                                 : English
    44. Default                                  : Yes
    45. Forced                                   : No

    46. Menu
    47. 00:00:00.000                             : en:00:00:00.000
    48. 00:02:01.747                             : en:00:02:01.747
    49. 00:13:10.206                             : en:00:13:10.206
    50. 00:25:32.322                             : en:00:25:32.322
    51. 00:33:29.758                             : en:00:33:29.758
    52. 00:38:50.995                             : en:00:38:50.995
    53. 00:49:43.939                             : en:00:49:43.939
    54. 00:57:16.266                             : en:00:57:16.266
    55. 01:02:30.121                             : en:01:02:30.121
    56. 01:13:56.098                             : en:01:13:56.098
    57. 01:21:57.162                             : en:01:21:57.162
    58. 01:34:42.385                             : en:01:34:42.385
    复制代码

    太平洋幽灵 Against.the.Sun.2014.LIMITED.1080p.BluRay.x264-USURY 6.56GB-2.jpeg

    游客,如果您要查看本帖隐藏内容请回复




    大咖网站我来了!
    回复

    使用道具 举报

  • TA的每日心情
    开心
    2016-6-1 14:06
  • 签到天数: 1 天

    [LV.1]初来乍到

    0

    主题

    1539

    回帖

    1591

    积分

    金牌会员

    Rank: 6Rank: 6

    积分
    1591
    发表于 2021-2-11 10:31:06 | 显示全部楼层
    感谢楼主的无私分享!要想蓝光高清电影网好 就靠你我他

    点评

    海!外直播 bitly.net/55cc55 禁闻视频 bitly.net/s6666s 专家说:未来十年,中国癌症将现井喷。33%的家庭,将因此耗尽所有积蓄。1/4中国人喝不上合格水;全球空气污染最严重的城市,一半以上在中国。生命可贵!看这个.   发表于 6 天前
    回复 支持 反对

    使用道具 举报

  • TA的每日心情
    奋斗
    2023-7-9 14:14
  • 签到天数: 2 天

    [LV.1]初来乍到

    0

    主题

    1万

    回帖

    1万

    积分

    论坛元老

    Rank: 8Rank: 8

    积分
    11640
    发表于 2021-2-11 16:05:41 | 显示全部楼层
    回复 支持 反对

    使用道具 举报

    该用户从未签到

    0

    主题

    2548

    回帖

    2904

    积分

    金牌会员

    Rank: 6Rank: 6

    积分
    2904
    发表于 2021-2-11 19:22:01 | 显示全部楼层

    非常精彩的电影,下来收藏,感谢楼主
    回复 支持 反对

    使用道具 举报

    该用户从未签到

    0

    主题

    1550

    回帖

    1585

    积分

    金牌会员

    Rank: 6Rank: 6

    积分
    1585
    发表于 2021-2-11 21:27:18 | 显示全部楼层
    回复 支持 反对

    使用道具 举报

    该用户从未签到

    0

    主题

    6213

    回帖

    6333

    积分

    论坛元老

    Rank: 8Rank: 8

    积分
    6333
    发表于 2021-2-18 10:24:38 | 显示全部楼层
    回复 支持 反对

    使用道具 举报

    该用户从未签到

    0

    主题

    1723

    回帖

    1745

    积分

    金牌会员

    Rank: 6Rank: 6

    积分
    1745
    发表于 2021-2-19 21:21:11 | 显示全部楼层
    回复 支持 反对

    使用道具 举报

  • TA的每日心情
    开心
    2016-6-1 14:06
  • 签到天数: 1 天

    [LV.1]初来乍到

    0

    主题

    1539

    回帖

    1591

    积分

    金牌会员

    Rank: 6Rank: 6

    积分
    1591
    发表于 2021-2-25 13:54:17 | 显示全部楼层
    回复 支持 反对

    使用道具 举报

  • TA的每日心情
    奋斗
    2023-7-9 14:14
  • 签到天数: 2 天

    [LV.1]初来乍到

    0

    主题

    1万

    回帖

    1万

    积分

    论坛元老

    Rank: 8Rank: 8

    积分
    11640
    发表于 2021-3-4 19:53:05 | 显示全部楼层
    回复 支持 反对

    使用道具 举报

    该用户从未签到

    0

    主题

    754

    回帖

    787

    积分

    高级会员

    Rank: 4

    积分
    787
    发表于 2021-3-14 11:48:30 | 显示全部楼层
    楼主太厉害了!楼主,电影应该很好看我觉得蓝光电影下载真是个好地方!
    回复 支持 反对

    使用道具 举报

    懒得打字嘛,点击右侧快捷回复 【右侧内容,后台自定义】
    您需要登录后才可以回帖 登录 | 立即注册

    本版积分规则

    郑重声明,本站所有作品片源来自互联网公开渠道,均为网友上传交流学习,影视版权均归原电影公司所有,如有侵犯版权,请与 2322694662@qq.com 联系,我们将立即删除。

    小黑屋|手机版|Archiver|投诉|51la|蓝光电影下载

    返回顶部
    x

    客服微信扫码添加咨询

    GMT+8, 2024-6-16 04:10 , Processed in 0.142710 second(s), 41 queries , Gzip On.

    Powered by Discuz! X3.4

    © 2001-2013 Comsenz Inc.

    快速回复 返回顶部 返回列表