快捷导航
查看: 24|回复: 12

[喜剧] 模范家庭/广告一家人 The.Joneses.2009.LIMITED.1080p.BluRay.x264-MACHD 6.55GB

[复制链接]
  • TA的每日心情
    开心
    2020-2-15 21:32
  • 签到天数: 240 天

    [LV.8]以坛为家I

    1万

    主题

    1万

    帖子

    7万

    积分

    管理员

    蓝光君

    Rank: 9Rank: 9Rank: 9

    积分
    77260

    活跃会员热心会员推广达人突出贡献优秀版主荣誉管理论坛元老

    QQ
    发表于 5 天前 | 显示全部楼层 |阅读模式
    1. 帖子完整标题:模范家庭/广告一家人 The.Joneses.2009.LIMITED.1080p.BluRay.x264-MACHD 6.55GB
    复制代码
    模范家庭/广告一家人 The.Joneses.2009.LIMITED.1080p.BluRay.x264-MACHD 6.55GB-1.jpeg


    译  名 模范家庭 / 广告一家人 / 琼斯一家
    片  名 The Joneses
    年  代 2009
    产  地 美国
    类  别 剧情 / 喜剧 / 家庭
    语  言 英语
    上映日期 2010-04-16
    IMDb评分  6.5/10 from 37932 users
    IMDb链接  https://www.imdb.com/title/tt1285309
    豆瓣评分 6.9/10 from 5045 users
    豆瓣链接 https://movie.douban.com/subject/3233745/
    片  长 96 分钟
    导  演 德瑞克·伯特 Derrick Borte
    编  剧 德瑞克·伯特 Derrick Borte
    主  演 黛米·摩尔 Demi Moore
           大卫·杜楚尼 David Duchovny
           艾梅柏·希尔德 Amber Heard
           盖瑞·科尔 Gary Cole


    标  签 美国 | 美国电影 | 剧情 | 喜剧 | 2010 | 模范家庭 | 家庭 | DemiMoore

    简  介   

      在小镇居民的心目中,由史蒂夫(大卫·杜楚尼 David Duchovny 饰)和凯特(黛咪·摩尔 Demi Moore 饰)组成的琼斯家堪称模范家庭的典范。史蒂夫温文尔雅,做着一份收入颇丰的工作,却还有足够的时间来满足自己的兴趣;凯特漂亮端庄,无论是穿着还是行为,无疑都引领着整个小镇的时尚。每个人都希望能够成为琼斯先生和琼斯太太,每个人又都绝望的发现,无论自己如何的向他们靠拢,都永远无法赶上他们奔向幸福的脚步。
      然而,对于史蒂夫和凯特来说,生活又是另一番模样,关于这个家庭的秘密让两人永远都无法心安理得的享受生活的美好,同时,充沛的物质条件无法弥补情感上的苍白裂缝,这个外人眼中的模范家庭已然濒临崩溃。
    1. Video
    2. ID                                       : 1
    3. Format                                   : AVC
    4. Format/Info                              : Advanced Video Codec
    5. Format profile                           : High@L4
    6. Format settings                          : CABAC / 5 Ref Frames
    7. Format settings, CABAC                   : Yes
    8. Format settings, ReFrames                : 5 frames
    9. Codec ID                                 : V_MPEG4/ISO/AVC
    10. Duration                                 : 1 h 35 min
    11. Bit rate                                 : 8 280 kb/s
    12. Width                                    : 1 920 pixels
    13. Height                                   : 816 pixels
    14. Display aspect ratio                     : 2.35:1
    15. Frame rate mode                          : Constant
    16. Frame rate                               : 23.976 FPS
    17. Color space                              : YUV
    18. Chroma subsampling                       : 4:2:0
    19. Bit depth                                : 8 bits
    20. Scan type                                : Progressive
    21. Bits/(Pixel*Frame)                       : 0.220
    22. Stream size                              : 5.41 GiB (83%)
    23. Writing library                          : x264 core 104 r1677 19df41a
    24. Encoding settings                        : cabac=1 / ref=5 / deblock=1:0:0 / analyse=0x3:0x113 / me=umh / subme=7 / psy=1 / psy_rd=1.00:0.00 / mixed_ref=1 / me_range=16 / chroma_me=1 / trellis=1 / 8x8dct=1 / cqm=0 / deadzone=21,11 / fast_pskip=1 / chroma_qp_offset=-2 / threads=6 / sliced_threads=0 / nr=0 / decimate=1 / interlaced=0 / constrained_intra=0 / bframes=3 / b_pyramid=2 / b_adapt=1 / b_bias=0 / direct=1 / weightb=1 / open_gop=0 / weightp=2 / keyint=250 / keyint_min=23 / scenecut=40 / intra_refresh=0 / rc_lookahead=40 / rc=2pass / mbtree=1 / bitrate=8280 / ratetol=1.0 / qcomp=0.60 / qpmin=10 / qpmax=51 / qpstep=4 / cplxblur=20.0 / qblur=0.5 / ip_ratio=1.40 / aq=1:1.00
    25. Language                                 : English
    26. Default                                  : Yes
    27. Forced                                   : No

    28. Audio
    29. ID                                       : 2
    30. Format                                   : DTS
    31. Format/Info                              : Digital Theater Systems
    32. Muxing mode                              : Header stripping
    33. Codec ID                                 : A_DTS
    34. Duration                                 : 1 h 35 min
    35. Bit rate mode                            : Constant
    36. Bit rate                                 : 1 509 kb/s
    37. Channel(s)                               : 6 channels
    38. Channel layout                           : C L R Ls Rs LFE
    39. Sampling rate                            : 48.0 kHz
    40. Frame rate                               : 93.750 FPS (512 SPF)
    41. Bit depth                                : 24 bits
    42. Compression mode                         : Lossy
    43. Stream size                              : 1.01 GiB (15%)
    44. Default                                  : Yes
    45. Forced                                   : No

    46. Text
    47. ID                                       : 3
    48. Format                                   : UTF-8
    49. Codec ID                                 : S_TEXT/UTF8
    50. Codec ID/Info                            : UTF-8 Plain Text
    51. Default                                  : Yes
    52. Forced                                   : No
    复制代码

    模范家庭/广告一家人 The.Joneses.2009.LIMITED.1080p.BluRay.x264-MACHD 6.55GB-2.png
    模范家庭/广告一家人 The.Joneses.2009.LIMITED.1080p.BluRay.x264-MACHD 6.55GB-3.png


    本帖隐藏的内容需要注册登陆才可浏览,您需要注册才可浏览,点击这里注册



    大中午的快困死蓝光君了
    回复

    使用道具 举报

    该用户从未签到

    0

    主题

    849

    帖子

    665

    积分

    高级会员

    Rank: 4

    积分
    665
    发表于 5 天前 | 显示全部楼层
    回复 支持 反对

    使用道具 举报

    该用户从未签到

    0

    主题

    1万

    帖子

    1万

    积分

    论坛元老

    Rank: 8Rank: 8

    积分
    11956
    发表于 5 天前 | 显示全部楼层
    感谢楼主的无私分享!要想蓝光高清电影网好 就靠你我他
    回复 支持 反对

    使用道具 举报

    该用户从未签到

    0

    主题

    1万

    帖子

    1万

    积分

    论坛元老

    Rank: 8Rank: 8

    积分
    11956
    发表于 4 天前 | 显示全部楼层
    回复 支持 反对

    使用道具 举报

  • TA的每日心情
    开心
    昨天 07:32
  • 签到天数: 14 天

    [LV.3]偶尔看看II

    0

    主题

    91

    帖子

    176

    积分

    注册会员

    Rank: 2

    积分
    176
    发表于 4 天前 | 显示全部楼层
    回复 支持 反对

    使用道具 举报

    该用户从未签到

    0

    主题

    2万

    帖子

    1万

    积分

    论坛元老

    Rank: 8Rank: 8

    积分
    17501
    发表于 4 天前 | 显示全部楼层
    楼主太厉害了!楼主,电影应该很好看我觉得蓝光电影下载真是个好地方!
    回复 支持 反对

    使用道具 举报

    该用户从未签到

    0

    主题

    2179

    帖子

    1796

    积分

    金牌会员

    Rank: 6Rank: 6

    积分
    1796
    发表于 4 天前 | 显示全部楼层
    回复 支持 反对

    使用道具 举报

  • TA的每日心情

    前天 11:36
  • 签到天数: 3 天

    [LV.2]偶尔看看I

    0

    主题

    10

    帖子

    32

    积分

    新手上路

    Rank: 1

    积分
    32
    发表于 4 天前 | 显示全部楼层
    本帖最后由 laowang1988 于 2021-2-23 16:32 编辑

    楼主发贴辛苦了,谢谢楼主分享!我觉得蓝光电影网是注册对了!
    回复 支持 反对

    使用道具 举报

    该用户从未签到

    0

    主题

    1万

    帖子

    1万

    积分

    论坛元老

    Rank: 8Rank: 8

    积分
    11956
    发表于 4 天前 | 显示全部楼层
    这个帖子不回对不起自己!我想我是一天也不能离开蓝光电影网
    回复 支持 反对

    使用道具 举报

    该用户从未签到

    0

    主题

    1466

    帖子

    1259

    积分

    金牌会员

    Rank: 6Rank: 6

    积分
    1259
    发表于 4 天前 | 显示全部楼层
    回复 支持 反对

    使用道具 举报

    懒得打字嘛,点击右侧快捷回复 【右侧内容,后台自定义】
    您需要登录后才可以回帖 登录 | 立即注册

    本版积分规则

    郑重声明,本站所有作品片源来自互联网公开渠道,均为网友上传交流学习,影视版权均归原电影公司所有,如有侵犯版权,请与 2322694662@qq.com 联系,我们将立即删除。

    小黑屋|手机版|Archiver|百度统计|投诉|蓝光电影下载

    GMT+8, 2021-2-27 06:18 , Processed in 0.094704 second(s), 26 queries , Gzip On, MemCached On.

    Powered by Discuz! X3.4

    © 2001-2013 Comsenz Inc.

    快速回复 返回顶部 返回列表