快捷导航
查看: 58|回复: 15

[动作] 报复 Reprisal.2018.1080p.BluRay.x264.DTS-CHD 7.93GB

[复制链接]
  • TA的每日心情
    开心
    昨天 21:17
  • 签到天数: 14 天

    [LV.3]偶尔看看II

    441

    主题

    479

    帖子

    1104

    积分

    发布组

    积分
    1104
    发表于 5 天前 | 显示全部楼层 |阅读模式
    1. 帖子完整标题:报复 Reprisal.2018.1080p.BluRay.x264.DTS-CHD 7.93GB
    复制代码



    译  名 报复 / DEATH SHOT
    片  名 Reprisal
    年  代 2018
    产  地 美国 / 英国
    类  别 动作
    语  言 英语
    上映日期 2018-08-31(美国)
    IMDb评分  4.2/10 from 5476 users
    IMDb链接  https://www.imdb.com/title/tt6547170
    豆瓣评分 4.2/10 from 810 users
    豆瓣链接 https://movie.douban.com/subject/26981251/
    片  长 89分钟
    导  演 布莱恩·A·米勒 Brian A Miller
    编  剧 Bryce Hammons
    主  演 弗兰克·格里罗 Frank Grillo
           布鲁斯·威利斯 Bruce Willis
           乔纳森·斯卡奇 Johnathon Schaech
           奥莉维亚·库尔普 Olivia Culpo
           泰勒·乔恩·奥尔森 Tyler Jon Olson
           沃斯·史蒂文斯 Wass Stevens
           科林·伊格斯菲德 Colin Egglesfield
           谢伊·巴克纳 Shea Buckner
           肯·斯特伦克 Ken Strunk
           Geoff Reeves


    标  签 动作 | 犯罪 | 布鲁斯·威利斯 | 美国 | 2018 | 美国电影 | 弗兰克·格里罗 | 电影

    简  介   

      银行经理雅各布(弗兰克·格里罗饰)的同事被暴徒夺去生命,而他将和警察(布鲁斯·威利斯饰)联手制服凶手。
    1. Video
    2. ID                                       : 1
    3. Format                                   : AVC
    4. Format/Info                              : Advanced Video Codec
    5. Format profile                           : High@L4
    6. Format settings                          : CABAC / 4 Ref Frames
    7. Format settings, CABAC                   : Yes
    8. Format settings, ReFrames                : 4 frames
    9. Codec ID                                 : V_MPEG4/ISO/AVC
    10. Duration                                 : 1 h 29 min
    11. Bit rate                                 : 11.2 Mb/s
    12. Width                                    : 1 920 pixels
    13. Height                                   : 1 038 pixels
    14. Display aspect ratio                     : 1.85:1
    15. Frame rate mode                          : Constant
    16. Frame rate                               : 23.976 (24000/1001/189150) FPS
    17. Color space                              : YUV
    18. Chroma subsampling                       : 4:2:0
    19. Bit depth                                : 8 bits
    20. Scan type                                : Progressive
    21. Bits/(Pixel*Frame)                       : 0.235
    22. Stream size                              : 6.99 GiB (88%)
    23. Writing library                          : x264 core 155 r2901 7d0ff22
    24. Encoding settings                        : cabac=1 / ref=4 / deblock=1:-3:-3 / analyse=0x3:0x113 / me=umh / subme=10 / psy=1 / psy_rd=1.05:0.10 / mixed_ref=1 / me_range=48 / chroma_me=1 / trellis=2 / 8x8dct=1 / cqm=0 / deadzone=21,11 / fast_pskip=0 / chroma_qp_offset=-2 / threads=18 / lookahead_threads=1 / sliced_threads=0 / nr=0 / decimate=1 / interlaced=0 / bluray_compat=0 / constrained_intra=0 / bframes=6 / b_pyramid=2 / b_adapt=2 / b_bias=0 / direct=3 / weightb=1 / open_gop=0 / weightp=2 / keyint=250 / keyint_min=23 / scenecut=40 / intra_refresh=0 / rc=2pass / mbtree=0 / bitrate=11244 / ratetol=2.0 / qcomp=0.70 / qpmin=0 / qpmax=69 / qpstep=4 / cplxblur=20.0 / qblur=0.5 / ip_ratio=1.40 / pb_ratio=1.30 / aq=3:1.00
    25. Default                                  : Yes
    26. Forced                                   : No

    27. Audio
    28. ID                                       : 2
    29. Format                                   : DTS
    30. Format/Info                              : Digital Theater Systems
    31. Codec ID                                 : A_DTS
    32. Duration                                 : 1 h 29 min
    33. Bit rate mode                            : Constant
    34. Bit rate                                 : 1 509 kb/s
    35. Channel(s)                               : 6 channels
    36. Channel layout                           : C L R Ls Rs LFE
    37. Sampling rate                            : 48.0 kHz
    38. Frame rate                               : 93.750 FPS (512 SPF)
    39. Bit depth                                : 24 bits
    40. Compression mode                         : Lossy
    41. Stream size                              : 962 MiB (12%)
    42. Language                                 : English
    43. Default                                  : Yes
    44. Forced                                   : No

    45. Text
    46. ID                                       : 3
    47. Format                                   : UTF-8
    48. Codec ID                                 : S_TEXT/UTF8
    49. Codec ID/Info                            : UTF-8 Plain Text
    50. Duration                                 : 1 h 24 min
    51. Bit rate                                 : 45 b/s
    52. Count of elements                        : 877
    53. Stream size                              : 27.8 KiB (0%)
    54. Language                                 : English
    55. Default                                  : Yes
    56. Forced                                   : No

    57. Menu
    58. 00:00:00.000                             : en:00:00:00.000
    59. 00:06:12.664                             : en:00:06:12.664
    60. 00:11:17.051                             : en:00:11:17.051
    61. 00:14:17.565                             : en:00:14:17.565
    62. 00:21:03.971                             : en:00:21:03.971
    63. 00:27:23.475                             : en:00:27:23.475
    64. 00:33:03.982                             : en:00:33:03.982
    65. 00:38:21.633                             : en:00:38:21.633
    66. 00:43:16.719                             : en:00:43:16.719
    67. 00:49:32.636                             : en:00:49:32.636
    68. 00:56:04.945                             : en:00:56:04.945
    69. 01:00:42.472                             : en:01:00:42.472
    70. 01:06:03.793                             : en:01:06:03.793
    71. 01:11:35.833                             : en:01:11:35.833
    72. 01:18:53.729                             : en:01:18:53.729
    73. 01:24:12.756                             : en:01:24:12.756
    复制代码






    本帖隐藏的内容需要注册登陆才可浏览,您需要注册才可浏览,点击这里注册



    报复 Reprisal.2018.1080p.BluRay.x264.DTS-CHD 7.93GB-1.jpeg
    报复 Reprisal.2018.1080p.BluRay.x264.DTS-CHD 7.93GB-2.png
    报复 Reprisal.2018.1080p.BluRay.x264.DTS-CHD 7.93GB-3.png
    回复

    使用道具 举报

    该用户从未签到

    0

    主题

    1万

    帖子

    1万

    积分

    论坛元老

    Rank: 8Rank: 8

    积分
    10891
    发表于 5 天前 | 显示全部楼层
    回复 支持 反对

    使用道具 举报

    该用户从未签到

    0

    主题

    1万

    帖子

    1万

    积分

    论坛元老

    Rank: 8Rank: 8

    积分
    11956
    发表于 5 天前 | 显示全部楼层
    回复 支持 反对

    使用道具 举报

    该用户从未签到

    0

    主题

    104

    帖子

    -10

    积分

    限制会员

    积分
    -10
    发表于 5 天前 | 显示全部楼层

    非常精彩的电影,下来收藏,感谢楼主
    回复 支持 反对

    使用道具 举报

    该用户从未签到

    0

    主题

    2万

    帖子

    1万

    积分

    论坛元老

    Rank: 8Rank: 8

    积分
    17501
    发表于 5 天前 | 显示全部楼层
    回复 支持 反对

    使用道具 举报

    该用户从未签到

    0

    主题

    2万

    帖子

    1万

    积分

    论坛元老

    Rank: 8Rank: 8

    积分
    17501
    发表于 5 天前 | 显示全部楼层
    回复 支持 反对

    使用道具 举报

    该用户从未签到

    0

    主题

    2179

    帖子

    1796

    积分

    金牌会员

    Rank: 6Rank: 6

    积分
    1796
    发表于 4 天前 | 显示全部楼层
    回复 支持 反对

    使用道具 举报

    该用户从未签到

    0

    主题

    1437

    帖子

    42

    积分

    新手上路

    Rank: 1

    积分
    42
    发表于 4 天前 | 显示全部楼层
    这个帖子不回对不起自己!我想我是一天也不能离开蓝光电影网
    回复 支持 反对

    使用道具 举报

    该用户从未签到

    0

    主题

    1万

    帖子

    1万

    积分

    论坛元老

    Rank: 8Rank: 8

    积分
    10891
    发表于 4 天前 | 显示全部楼层

    是个好电影!必须要看的!多谢分享!
    回复 支持 反对

    使用道具 举报

    该用户从未签到

    0

    主题

    1万

    帖子

    1万

    积分

    论坛元老

    Rank: 8Rank: 8

    积分
    10891
    发表于 4 天前 | 显示全部楼层
    回复 支持 反对

    使用道具 举报

    懒得打字嘛,点击右侧快捷回复 【右侧内容,后台自定义】
    您需要登录后才可以回帖 登录 | 立即注册

    本版积分规则

    郑重声明,本站所有作品片源来自互联网公开渠道,均为网友上传交流学习,影视版权均归原电影公司所有,如有侵犯版权,请与 2322694662@qq.com 联系,我们将立即删除。

    小黑屋|手机版|Archiver|百度统计|投诉|蓝光电影下载

    GMT+8, 2021-2-27 04:56 , Processed in 0.067539 second(s), 23 queries , Gzip On, MemCached On.

    Powered by Discuz! X3.4

    © 2001-2013 Comsenz Inc.

    快速回复 返回顶部 返回列表