快捷导航
查看: 87|回复: 16

[爱情] 碧海娇娃/蓝得有情人 Blue.Crush.2002.1080p.BluRay.X264-AVCHD 7.65GB

[复制链接]
  • TA的每日心情
    开心
    2020-2-15 21:32
  • 签到天数: 240 天

    [LV.8]以坛为家I

    1万

    主题

    1万

    帖子

    7万

    积分

    管理员

    蓝光君

    Rank: 9Rank: 9Rank: 9

    积分
    77260

    活跃会员热心会员推广达人突出贡献优秀版主荣誉管理论坛元老

    QQ
    发表于 5 天前 | 显示全部楼层 |阅读模式
    1. 帖子完整标题:碧海娇娃/蓝得有情人 Blue.Crush.2002.1080p.BluRay.X264-AVCHD 7.65GB
    复制代码
    碧海娇娃/蓝得有情人 Blue.Crush.2002.1080p.BluRay.X264-AVCHD 7.65GB-1.jpeg


    译  名 碧海娇娃 / 蓝得有情人 / 蓝色激情
    片  名 Blue Crush
    年  代 2002
    产  地 德国 / 美国
    类  别 剧情 / 爱情 / 运动
    语  言 英语
    上映日期 2002-08-16
    IMDb评分  5.6/10 from 29581 users
    IMDb链接  https://www.imdb.com/title/tt0300532
    豆瓣评分 6.7/10 from 679 users
    豆瓣链接 https://movie.douban.com/subject/1300440/
    片  长 104 分钟
    导  演 John Stockwell
    编  剧 Lizzy Weiss / John Stockwell
    主  演 Kate Bosworth
           Matthew Davis
           Michelle Rodriguez


    标  签 冲浪 | 青春 | 美国 | 运动 | 美国电影 | 励志 | 2002 | 热血

    简  介   

      安妮(凯特·波茨沃斯 Kate Bosworth 饰)热爱冲浪运动,将其视为生命的意义,只有踩在冲浪板上跃出浪尖,安妮才能找到人生的方向和信仰。安妮打算参加全美冲浪高手大奖赛,为了方便训练,她离开了家,来到了位于夏威夷海滩上的一间简陋木屋中,将这里视为自己的训练基地。
      和安妮一起努力奋斗的,还有她的室友伊顿(米歇尔·罗德里格兹 Michelle Rodriguez 饰)和蕾娜(Sanoe Lake 饰)等人,每天天刚蒙蒙亮,这些靓丽青春的身影就已经出现在了碧蓝的大海之中。就在安妮努力向梦想迈进之时,一位名叫马特(马修·戴维斯 Matthew Davis 饰)的英俊男孩出现在了安妮的身边,两人坠入情网。
    1. Video
    2. ID                                       : 1
    3. Format                                   : AVC
    4. Format/Info                              : Advanced Video Codec
    5. Format profile                           : High@L4
    6. Format settings                          : CABAC / 4 Ref Frames
    7. Format settings, CABAC                   : Yes
    8. Format settings, Reference frames        : 4 frames
    9. Codec ID                                 : V_MPEG4/ISO/AVC
    10. Duration                                 : 1 h 44 min
    11. Bit rate                                 : 8 986 kb/s
    12. Width                                    : 1 920 pixels
    13. Height                                   : 1 040 pixels
    14. Display aspect ratio                     : 1.85:1
    15. Frame rate mode                          : Constant
    16. Frame rate                               : 23.976 (23976/1000/189150) FPS
    17. Color space                              : YUV
    18. Chroma subsampling                       : 4:2:0
    19. Bit depth                                : 8 bits
    20. Scan type                                : Progressive
    21. Bits/(Pixel*Frame)                       : 0.188
    22. Stream size                              : 6.39 GiB (84%)
    23. Writing library                          : x264 core 115 r1995 c1e60b9
    24. Encoding settings                        : cabac=1 / ref=4 / deblock=1:0:0 / analyse=0x3:0x133 / me=umh / subme=7 / psy=1 / psy_rd=1.00:0.00 / mixed_ref=1 / me_range=16 / chroma_me=1 / trellis=1 / 8x8dct=1 / cqm=0 / deadzone=21,11 / fast_pskip=0 / chroma_qp_offset=-2 / threads=12 / sliced_threads=0 / nr=0 / decimate=1 / interlaced=0 / bluray_compat=0 / constrained_intra=0 / bframes=3 / b_pyramid=2 / b_adapt=1 / b_bias=0 / direct=1 / weightb=1 / open_gop=0 / weightp=2 / keyint=250 / keyint_min=23 / scenecut=40 / intra_refresh=0 / rc_lookahead=40 / rc=2pass / mbtree=1 / bitrate=8986 / ratetol=1.0 / qcomp=0.60 / qpmin=0 / qpmax=69 / qpstep=4 / cplxblur=20.0 / qblur=0.5 / ip_ratio=1.40 / aq=1:1.00
    25. Language                                 : English
    26. Default                                  : Yes
    27. Forced                                   : No

    28. Audio
    29. ID                                       : 2
    30. Format                                   : DTS
    31. Format/Info                              : Digital Theater Systems
    32. Codec ID                                 : A_DTS
    33. Duration                                 : 1 h 44 min
    34. Bit rate mode                            : Constant
    35. Bit rate                                 : 1 509 kb/s
    36. Channel(s)                               : 6 channels
    37. Channel layout                           : C L R Ls Rs LFE
    38. Sampling rate                            : 48.0 kHz
    39. Frame rate                               : 93.750 FPS (512 SPF)
    40. Bit depth                                : 24 bits
    41. Compression mode                         : Lossy
    42. Stream size                              : 1.10 GiB (14%)
    43. Language                                 : English
    44. Default                                  : Yes
    45. Forced                                   : No
    复制代码

    碧海娇娃/蓝得有情人 Blue.Crush.2002.1080p.BluRay.X264-AVCHD 7.65GB-2.png
    碧海娇娃/蓝得有情人 Blue.Crush.2002.1080p.BluRay.X264-AVCHD 7.65GB-3.png
    碧海娇娃/蓝得有情人 Blue.Crush.2002.1080p.BluRay.X264-AVCHD 7.65GB-4.png

    本帖隐藏的内容需要注册登陆才可浏览,您需要注册才可浏览,点击这里注册




    大中午的快困死蓝光君了
    回复

    使用道具 举报

    该用户从未签到

    0

    主题

    1437

    帖子

    42

    积分

    新手上路

    Rank: 1

    积分
    42
    发表于 5 天前 | 显示全部楼层
    回复 支持 反对

    使用道具 举报

    该用户从未签到

    0

    主题

    865

    帖子

    766

    积分

    高级会员

    Rank: 4

    积分
    766
    发表于 5 天前 | 显示全部楼层
    这个帖子不回对不起自己!我想我是一天也不能离开蓝光电影网
    回复 支持 反对

    使用道具 举报

    该用户从未签到

    0

    主题

    1万

    帖子

    1万

    积分

    论坛元老

    Rank: 8Rank: 8

    积分
    10891
    发表于 5 天前 | 显示全部楼层
    感谢楼主的无私分享!要想蓝光高清电影网好 就靠你我他
    回复 支持 反对

    使用道具 举报

    该用户从未签到

    0

    主题

    328

    帖子

    291

    积分

    中级会员

    Rank: 3Rank: 3

    积分
    291
    发表于 5 天前 | 显示全部楼层
    回复 支持 反对

    使用道具 举报

    该用户从未签到

    0

    主题

    2万

    帖子

    1万

    积分

    论坛元老

    Rank: 8Rank: 8

    积分
    17501
    发表于 5 天前 | 显示全部楼层
    回复 支持 反对

    使用道具 举报

    该用户从未签到

    0

    主题

    1437

    帖子

    42

    积分

    新手上路

    Rank: 1

    积分
    42
    发表于 5 天前 | 显示全部楼层
    回复 支持 反对

    使用道具 举报

    该用户从未签到

    0

    主题

    1万

    帖子

    1万

    积分

    论坛元老

    Rank: 8Rank: 8

    积分
    10891
    发表于 5 天前 | 显示全部楼层
    回复 支持 反对

    使用道具 举报

  • TA的每日心情
    开心
    4 天前
  • 签到天数: 11 天

    [LV.3]偶尔看看II

    0

    主题

    42

    帖子

    260

    积分

    中级会员

    Rank: 3Rank: 3

    积分
    260
    发表于 5 天前 | 显示全部楼层
    回复 支持 反对

    使用道具 举报

    该用户从未签到

    0

    主题

    2万

    帖子

    1万

    积分

    论坛元老

    Rank: 8Rank: 8

    积分
    17501
    发表于 5 天前 | 显示全部楼层
    楼主太厉害了!楼主,电影应该很好看我觉得蓝光电影下载真是个好地方!
    回复 支持 反对

    使用道具 举报

    懒得打字嘛,点击右侧快捷回复 【右侧内容,后台自定义】
    您需要登录后才可以回帖 登录 | 立即注册

    本版积分规则

    郑重声明,本站所有作品片源来自互联网公开渠道,均为网友上传交流学习,影视版权均归原电影公司所有,如有侵犯版权,请与 2322694662@qq.com 联系,我们将立即删除。

    小黑屋|手机版|Archiver|百度统计|投诉|蓝光电影下载

    GMT+8, 2021-2-27 05:37 , Processed in 0.050691 second(s), 26 queries , Gzip On, MemCached On.

    Powered by Discuz! X3.4

    © 2001-2013 Comsenz Inc.

    快速回复 返回顶部 返回列表