快捷导航
查看: 1902|回复: 41

寂静岭2/3D 鬼魅山房2 Silent.Hill.Revelation.2012.3D.1080p.BluRay.x264-GUACAMOLE 7.73GB

[复制链接]
  • TA的每日心情

    3 天前
  • 签到天数: 109 天

    [LV.6]常住居民II

    2077

    主题

    2188

    帖子

    4739

    积分

    发布组

    积分
    4739
    发表于 2021-3-6 11:15:58 | 显示全部楼层 |阅读模式
    1. 帖子完整标题:寂静岭2/3D 鬼魅山房2 Silent.Hill.Revelation.2012.3D.1080p.BluRay.x264-GUACAMOLE 7.73GB
    复制代码
    寂静岭2/3D 鬼魅山房2 Silent.Hill.Revelation.2012.3D.1080p.BluRay.x264-GUACAMOLE 7.73GB-1.jpeg


    译  名 寂静岭2 / 3D 鬼魅山房2(港) / Silent Hill 2 / 寂静岭2:启示 / 寂静岭:揭示 / 沉默之丘2:启示录(台)
    片  名 Silent Hill: Revelation 3D
    年  代 2012
    产  地 法国 / 美国 / 加拿大
    类  别 悬疑 / 惊悚 / 恐怖
    语  言 英语
    上映日期 2012-10-26(美国)
    IMDb评分  5.0/10 from 59348 users
    IMDb链接  https://www.imdb.com/title/tt0938330
    豆瓣评分 5.7/10 from 57223 users
    豆瓣链接 https://movie.douban.com/subject/2117898/
    片  长 94分钟
    导  演 迈克尔·巴塞特 Michael J. Bassett
    编  剧 迈克尔·巴塞特 Michael J. Bassett
    主  演 肖恩·宾 Sean Bean
           凯瑞-安·莫斯 Carrie-Anne Moss
           马尔科姆·麦克道威尔 Malcolm McDowell
           阿德莱德·克莱蒙丝  Adelaide Clemens
           基特·哈灵顿 Kit Harington
           马丁·唐文 Martin Donovan


    标  签 恐怖 | 惊悚 | 美国 | 游戏改编 | 宗教 | 悬疑 | 血腥 | 心理

    简  介   

      《寂静岭2》改编自热爆电子游戏《Silent Hill 3》。
      Heather Mason(阿德莱德·克莱蒙丝 Adelaide Clemens 饰)和父亲Harry Mason(肖恩·宾 Sean Bean 饰)在外面逃命已经多年,但她却总不明白那些对他们造成危险的东西是什么。多年来受神秘力量骚扰,更长期被毛骨悚然的恶梦弄得心绪不宁。18岁生日当日,她发现自己被偷偷跟踪,随之而来的事故也让父亲离奇失踪,只遗下一个神秘的讯息。在那场事件中,她发现自己的身份是伪造的,而自己对从前的回忆也成为了梦魇。这一切奇怪的梦和事,引领着她到达那个既陌生又可怕的国度——寂静岭。
      踏进这里后,Heather发现很多惊人的真相,路上等待她的是恐惧的威吓,而她的身世之谜也慢慢被揭开。各种可怕的生物在这个地方出现,更有人告诉她她就是那个命中注定要来杀光所有梦魇和怪兽的人……
    1. Video
    2. ID                                       : 1
    3. Format                                   : AVC
    4. Format/Info                              : Advanced Video Codec
    5. Format profile                           : High@L4
    6. MultiView_Count                          : 2
    7. MultiView_Layout                         : Side by Side (left eye first)
    8. Format settings                          : CABAC / 5 Ref Frames
    9. Format settings, CABAC                   : Yes
    10. Format settings, Reference frames        : 5 frames
    11. Codec ID                                 : V_MPEG4/ISO/AVC
    12. Duration                                 : 1 h 34 min
    13. Bit rate                                 : 7 808 kb/s
    14. Width                                    : 1 920 pixels
    15. Height                                   : 800 pixels
    16. Display aspect ratio                     : 2.40:1
    17. Frame rate mode                          : Constant
    18. Frame rate                               : 23.976 (24000/1001/189150) FPS
    19. Color space                              : YUV
    20. Chroma subsampling                       : 4:2:0
    21. Bit depth                                : 8 bits
    22. Scan type                                : Progressive
    23. Bits/(Pixel*Frame)                       : 0.212
    24. Stream size                              : 5.17 GiB (67%)
    25. Writing library                          : x264 core 161 r3018 db0d417
    26. Encoding settings                        : cabac=1 / ref=5 / deblock=1:-3:-3 / analyse=0x3:0x133 / me=umh / subme=9 / psy=1 / psy_rd=1.00:0.00 / mixed_ref=1 / me_range=32 / chroma_me=1 / trellis=2 / 8x8dct=1 / cqm=0 / deadzone=21,11 / fast_pskip=0 / chroma_qp_offset=-2 / threads=24 / lookahead_threads=2 / sliced_threads=0 / nr=0 / decimate=1 / interlaced=0 / bluray_compat=0 / constrained_intra=0 / bframes=3 / b_pyramid=2 / b_adapt=2 / b_bias=0 / direct=3 / weightb=1 / open_gop=0 / weightp=2 / keyint=250 / keyint_min=23 / scenecut=40 / intra_refresh=0 / rc_lookahead=60 / rc=crf / mbtree=1 / crf=17.0 / qcomp=0.60 / qpmin=0 / qpmax=69 / qpstep=4 / ip_ratio=1.40 / aq=3:0.80
    27. Language                                 : English
    28. Default                                  : Yes
    29. Forced                                   : No
    30. Color range                              : Limited
    31. Color primaries                          : BT.709
    32. Transfer characteristics                 : BT.709
    33. Matrix coefficients                      : BT.709

    34. Audio
    35. ID                                       : 2
    36. Format                                   : DTS XLL
    37. Format/Info                              : Digital Theater Systems
    38. Commercial name                          : DTS-HD Master Audio
    39. Codec ID                                 : A_DTS
    40. Duration                                 : 1 h 34 min
    41. Bit rate mode                            : Variable
    42. Bit rate                                 : 3 845 kb/s
    43. Channel(s)                               : 6 channels
    44. Channel layout                           : C L R Ls Rs LFE
    45. Sampling rate                            : 48.0 kHz
    46. Frame rate                               : 93.750 FPS (512 SPF)
    47. Bit depth                                : 24 bits
    48. Compression mode                         : Lossless
    49. Stream size                              : 2.54 GiB (33%)
    50. Language                                 : English
    51. Default                                  : Yes
    52. Forced                                   : No

    53. Text #1
    54. ID                                       : 3
    55. Format                                   : PGS
    56. Muxing mode                              : zlib
    57. Codec ID                                 : S_HDMV/PGS
    58. Codec ID/Info                            : Picture based subtitle format used on BDs/HD-DVDs
    59. Duration                                 : 1 h 26 min
    60. Bit rate                                 : 39.5 kb/s
    61. Count of elements                        : 1766
    62. Stream size                              : 24.4 MiB (0%)
    63. Title                                    : SDH
    64. Language                                 : English
    65. Default                                  : No
    66. Forced                                   : No

    67. Text #2
    68. ID                                       : 4
    69. Format                                   : PGS
    70. Muxing mode                              : zlib
    71. Codec ID                                 : S_HDMV/PGS
    72. Codec ID/Info                            : Picture based subtitle format used on BDs/HD-DVDs
    73. Duration                                 : 1 h 24 min
    74. Bit rate                                 : 36.6 kb/s
    75. Count of elements                        : 1520
    76. Stream size                              : 22.1 MiB (0%)
    77. Title                                    : SDH
    78. Language                                 : Spanish
    79. Default                                  : No
    80. Forced                                   : No

    81. Menu
    82. 00:00:00.000                             : :Chapter 01
    83. 00:04:40.488                             : :Chapter 02
    84. 00:11:37.530                             : :Chapter 03
    85. 00:17:08.610                             : :Chapter 04
    86. 00:21:28.495                             : :Chapter 05
    87. 00:24:03.483                             : :Chapter 06
    88. 00:27:58.927                             : :Chapter 07
    89. 00:31:27.010                             : :Chapter 08
    90. 00:35:23.079                             : :Chapter 09
    91. 00:40:49.113                             : :Chapter 10
    92. 00:46:49.473                             : :Chapter 11
    93. 00:50:34.281                             : :Chapter 12
    94. 00:53:55.023                             : :Chapter 13
    95. 00:57:46.671                             : :Chapter 14
    96. 01:03:51.828                             : :Chapter 15
    97. 01:06:29.443                             : :Chapter 16
    98. 01:11:28.284                             : :Chapter 17
    99. 01:16:34.298                             : :Chapter 18
    100. 01:22:59.099                             : :Chapter 19
    101. 01:27:20.068                             : :Chapter 20
    复制代码

    寂静岭2/3D 鬼魅山房2 Silent.Hill.Revelation.2012.3D.1080p.BluRay.x264-GUACAMOLE 7.73GB-2.jpeg
    游客,如果您要查看本帖隐藏内容请回复





    回复

    使用道具 举报

    该用户从未签到

    0

    主题

    1095

    帖子

    737

    积分

    高级会员

    Rank: 4

    积分
    737
    发表于 2021-3-6 11:16:12 | 显示全部楼层
    回复 支持 反对

    使用道具 举报

    该用户从未签到

    0

    主题

    1257

    帖子

    1106

    积分

    金牌会员

    Rank: 6Rank: 6

    积分
    1106
    发表于 2021-3-6 18:07:08 | 显示全部楼层
    回复 支持 反对

    使用道具 举报

    该用户从未签到

    0

    主题

    1万

    帖子

    1万

    积分

    论坛元老

    Rank: 8Rank: 8

    积分
    17623
    发表于 2021-3-7 00:27:45 | 显示全部楼层
    楼主太厉害了!楼主,电影应该很好看我觉得蓝光电影下载真是个好地方!
    回复 支持 反对

    使用道具 举报

    该用户从未签到

    0

    主题

    2240

    帖子

    1693

    积分

    金牌会员

    Rank: 6Rank: 6

    积分
    1693
    发表于 2021-3-7 04:20:14 | 显示全部楼层
    回复 支持 反对

    使用道具 举报

    该用户从未签到

    0

    主题

    3万

    帖子

    2万

    积分

    论坛元老

    Rank: 8Rank: 8

    积分
    28148
    发表于 2021-3-7 15:14:34 | 显示全部楼层
    回复 支持 反对

    使用道具 举报

    该用户从未签到

    0

    主题

    3万

    帖子

    2万

    积分

    论坛元老

    Rank: 8Rank: 8

    积分
    28148
    发表于 2021-3-8 01:33:41 | 显示全部楼层
    回复 支持 反对

    使用道具 举报

    该用户从未签到

    0

    主题

    3万

    帖子

    2万

    积分

    论坛元老

    Rank: 8Rank: 8

    积分
    28148
    发表于 2021-3-8 01:39:48 | 显示全部楼层
    感谢楼主的无私分享!要想蓝光高清电影网好 就靠你我他
    回复 支持 反对

    使用道具 举报

  • TA的每日心情

    2021-5-6 10:39
  • 签到天数: 21 天

    [LV.4]偶尔看看III

    0

    主题

    23

    帖子

    148

    积分

    注册会员

    Rank: 2

    积分
    148
    发表于 2021-3-8 15:21:48 | 显示全部楼层
    回复 支持 反对

    使用道具 举报

    该用户从未签到

    0

    主题

    1万

    帖子

    1万

    积分

    论坛元老

    Rank: 8Rank: 8

    积分
    17623
    发表于 2021-3-8 15:21:48 | 显示全部楼层

    是个好电影!必须要看的!多谢分享!
    回复 支持 反对

    使用道具 举报

    懒得打字嘛,点击右侧快捷回复 【右侧内容,后台自定义】
    您需要登录后才可以回帖 登录 | 立即注册

    本版积分规则

    郑重声明,本站所有作品片源来自互联网公开渠道,均为网友上传交流学习,影视版权均归原电影公司所有,如有侵犯版权,请与 2322694662@qq.com 联系,我们将立即删除。

    小黑屋|手机版|Archiver|百度统计|投诉|蓝光电影下载

    GMT+8, 2021-10-17 12:25 , Processed in 0.105987 second(s), 24 queries , Gzip On, MemCached On.

    Powered by Discuz! X3.4

    © 2001-2013 Comsenz Inc.

    快速回复 返回顶部 返回列表