快捷导航
查看: 49|回复: 12

[喜剧] 时空急转弯 The.Visitors.1993.REMASTERED.1080p.BluRay.x264-USURY 8.75GB

[复制链接]
  • TA的每日心情

    2021-4-27 18:29
  • 签到天数: 36 天

    [LV.5]常住居民I

    1162

    主题

    1198

    帖子

    2060

    积分

    发布组

    积分
    2060
    发表于 2021-3-23 20:13:07 | 显示全部楼层 |阅读模式
    1. 帖子完整标题:时空急转弯 The.Visitors.1993.REMASTERED.1080p.BluRay.x264-USURY 8.75GB
    复制代码
    时空急转弯 The.Visitors.1993.REMASTERED.1080p.BluRay.x264-USURY 8.75GB-1.png


    译  名 时空急转弯 / The Visitors / 十二世纪来客 / 失惊无神外来人 / 时空造访者 / 来访者
    片  名 Les visiteurs
    年  代 1993
    产  地 法国
    类  别 喜剧 / 奇幻
    语  言 法语 / 英语
    上映日期 1993-01-27
    IMDb评分  7.1/10 from 31348 users
    IMDb链接  https://www.imdb.com/title/tt0108500
    豆瓣评分 7.2/10 from 6062 users
    豆瓣链接 https://movie.douban.com/subject/1292736/
    片  长 107 分钟
    导  演 Jean-Marie Poiré
    编  剧 Christian Clavier / Jean-Marie Poiré
    主  演 Jean Reno
           Christian Clavier
           Valérie Lemercier
           Marie-Anne Chazel


    标  签 喜剧 | 法国 | 让·雷诺 | 法国电影 | 1993 | 奇幻 | 时空 | JeanReno

    简  介   

      故事发生在十二世纪的法国,一种神奇且危险的时光穿梭魔力药水令戈德弗鲁瓦骑士(让·雷诺 Jean Reno 饰)和其仆人拉弗里普伊(克里斯汀·克拉维尔 Christian Clavier 饰)一同穿越到了二十一世纪的美国芝加哥。翻天覆地的变化和车水马龙的大街让这两个“老古董”既好奇又恐惧,就在此时,一位名为茱莉亚(瓦莱丽·勒梅西埃 Pierre Aussedat 饰)的美丽女子出现在了两人的面前。巧合的是,这位茱莉亚不是别人,竟然就是戈德弗鲁瓦骑士的后代。
      很快,戈德弗鲁瓦骑士和拉弗里普伊便明白了他们的处境,与此同时,一个严重的问题浮出了水面——如果他们无法返回属于自己的时代,那也就意味着,他们的后代,也就是茱莉亚也将不复存在。十万火急之下,戈德弗鲁瓦骑士一行人开始寻找起了回到过去的方法。

    获奖情况  

      第19届法国凯撒电影奖(1994)
      最佳影片(提名)
      最佳导演(提名) 让-马里·普瓦雷
      最佳男主角(提名) 克里斯蒂昂·克拉维埃 / 让·雷诺
      最佳女配角 瓦莱丽·勒梅西埃
      最佳原创剧本(提名) 克里斯蒂昂·克拉维埃 / 让-马里·普瓦雷
      最佳剪辑(提名) Catherine Kelber
      最佳原创音乐(提名)
      最佳服装(提名) 凯瑟琳·莱泰里尔
    1. Video
    2. ID                                       : 1
    3. Format                                   : AVC
    4. Format/Info                              : Advanced Video Codec
    5. Format profile                           : High@L4
    6. Format settings                          : CABAC / 5 Ref Frames
    7. Format settings, CABAC                   : Yes
    8. Format settings, Reference frames        : 5 frames
    9. Codec ID                                 : V_MPEG4/ISO/AVC
    10. Duration                                 : 1 h 46 min
    11. Bit rate                                 : 10.2 Mb/s
    12. Width                                    : 1 920 pixels
    13. Height                                   : 824 pixels
    14. Display aspect ratio                     : 2.35:1
    15. Frame rate mode                          : Constant
    16. Frame rate                               : 24.000 FPS
    17. Color space                              : YUV
    18. Chroma subsampling                       : 4:2:0
    19. Bit depth                                : 8 bits
    20. Scan type                                : Progressive
    21. Bits/(Pixel*Frame)                       : 0.269
    22. Stream size                              : 7.62 GiB (87%)
    23. Writing library                          : x264 core 148 r2705 3f5ed56
    24. Encoding settings                        : cabac=1 / ref=5 / deblock=1:0:0 / analyse=0x3:0x133 / me=umh / subme=9 / psy=1 / psy_rd=1.00:0.00 / mixed_ref=1 / me_range=16 / chroma_me=1 / trellis=1 / 8x8dct=1 / cqm=0 / deadzone=21,11 / fast_pskip=0 / chroma_qp_offset=-2 / threads=26 / lookahead_threads=2 / sliced_threads=0 / nr=0 / decimate=1 / interlaced=0 / bluray_compat=0 / constrained_intra=0 / bframes=3 / b_pyramid=2 / b_adapt=2 / b_bias=0 / direct=3 / weightb=1 / open_gop=0 / weightp=2 / keyint=250 / keyint_min=23 / scenecut=40 / intra_refresh=0 / rc_lookahead=50 / rc=2pass / mbtree=1 / bitrate=10221 / ratetol=1.0 / qcomp=0.60 / qpmin=0 / qpmax=69 / qpstep=4 / cplxblur=20.0 / qblur=0.5 / ip_ratio=1.40 / aq=1:1.00
    25. Language                                 : English
    26. Default                                  : Yes
    27. Forced                                   : No

    28. Audio
    29. ID                                       : 2
    30. Format                                   : DTS
    31. Format/Info                              : Digital Theater Systems
    32. Codec ID                                 : A_DTS
    33. Duration                                 : 1 h 46 min
    34. Bit rate mode                            : Constant
    35. Bit rate                                 : 1 509 kb/s
    36. Channel(s)                               : 6 channels
    37. Channel layout                           : C L R Ls Rs LFE
    38. Sampling rate                            : 48.0 kHz
    39. Frame rate                               : 93.750 FPS (512 SPF)
    40. Bit depth                                : 24 bits
    41. Compression mode                         : Lossy
    42. Stream size                              : 1.13 GiB (13%)
    43. Language                                 : French
    44. Default                                  : Yes
    45. Forced                                   : No

    46. Text
    47. ID                                       : 3
    48. Format                                   : UTF-8
    49. Codec ID                                 : S_TEXT/UTF8
    50. Codec ID/Info                            : UTF-8 Plain Text
    51. Duration                                 : 1 h 46 min
    52. Bit rate                                 : 60 b/s
    53. Count of elements                        : 1779
    54. Stream size                              : 47.4 KiB (0%)
    55. Title                                    : forced
    56. Language                                 : English
    57. Default                                  : Yes
    58. Forced                                   : Yes

    59. Menu
    60. 00:00:00.000                             : en:00:00:00.000
    61. 00:09:03.875                             : en:00:09:03.875
    62. 00:19:43.542                             : en:00:19:43.542
    63. 00:28:15.042                             : en:00:28:15.042
    64. 00:38:20.583                             : en:00:38:20.583
    65. 00:42:48.542                             : en:00:42:48.542
    66. 00:54:16.542                             : en:00:54:16.542
    67. 01:02:07.125                             : en:01:02:07.125
    68. 01:20:50.042                             : en:01:20:50.042
    69. 01:29:47.083                             : en:01:29:47.083
    70. 01:36:28.875                             : en:01:36:28.875
    71. 01:40:38.417                             : en:01:40:38.417
    复制代码

    时空急转弯 The.Visitors.1993.REMASTERED.1080p.BluRay.x264-USURY 8.75GB-2.png
    本帖隐藏的内容需要VIP会员才可浏览,您需要升级才可浏览,点击这里升级VIP





    回复

    使用道具 举报

    该用户从未签到

    0

    主题

    2万

    帖子

    2万

    积分

    论坛元老

    Rank: 8Rank: 8

    积分
    22944
    发表于 2021-3-23 20:13:35 | 显示全部楼层
    回复 支持 反对

    使用道具 举报

    该用户从未签到

    0

    主题

    3847

    帖子

    2186

    积分

    金牌会员

    Rank: 6Rank: 6

    积分
    2186
    发表于 2021-3-23 22:32:09 | 显示全部楼层
    楼主太厉害了!楼主,电影应该很好看我觉得蓝光电影下载真是个好地方!
    回复 支持 反对

    使用道具 举报

    该用户从未签到

    0

    主题

    1160

    帖子

    890

    积分

    高级会员

    Rank: 4

    积分
    890
    发表于 2021-3-24 14:59:58 | 显示全部楼层
    回复 支持 反对

    使用道具 举报

    该用户从未签到

    0

    主题

    448

    帖子

    188

    积分

    注册会员

    Rank: 2

    积分
    188
    发表于 2021-3-24 15:36:30 | 显示全部楼层
    回复 支持 反对

    使用道具 举报

    该用户从未签到

    0

    主题

    471

    帖子

    10

    积分

    新手上路

    Rank: 1

    积分
    10
    发表于 2021-3-24 20:54:12 | 显示全部楼层

    非常精彩的电影,下来收藏,感谢楼主
    回复 支持 反对

    使用道具 举报

    该用户从未签到

    0

    主题

    2万

    帖子

    2万

    积分

    论坛元老

    Rank: 8Rank: 8

    积分
    22944
    发表于 2021-3-25 14:08:03 | 显示全部楼层
    回复 支持 反对

    使用道具 举报

    该用户从未签到

    0

    主题

    2万

    帖子

    2万

    积分

    论坛元老

    Rank: 8Rank: 8

    积分
    22944
    发表于 2021-3-30 21:24:25 | 显示全部楼层
    这个帖子不回对不起自己!我想我是一天也不能离开蓝光电影网
    回复 支持 反对

    使用道具 举报

    该用户从未签到

    0

    主题

    2万

    帖子

    2万

    积分

    论坛元老

    Rank: 8Rank: 8

    积分
    22944
    发表于 2021-4-4 07:24:33 | 显示全部楼层

    是个好电影!必须要看的!多谢分享!
    回复 支持 反对

    使用道具 举报

    该用户从未签到

    0

    主题

    1万

    帖子

    1万

    积分

    论坛元老

    Rank: 8Rank: 8

    积分
    14219
    发表于 2021-4-9 07:48:18 | 显示全部楼层
    回复 支持 反对

    使用道具 举报

    懒得打字嘛,点击右侧快捷回复 【右侧内容,后台自定义】
    您需要登录后才可以回帖 登录 | 立即注册

    本版积分规则

    郑重声明,本站所有作品片源来自互联网公开渠道,均为网友上传交流学习,影视版权均归原电影公司所有,如有侵犯版权,请与 2322694662@qq.com 联系,我们将立即删除。

    小黑屋|手机版|Archiver|百度统计|投诉|蓝光电影下载

    GMT+8, 2021-5-11 11:24 , Processed in 0.033994 second(s), 22 queries , Gzip On, MemCached On.

    Powered by Discuz! X3.4

    © 2001-2013 Comsenz Inc.

    快速回复 返回顶部 返回列表