快捷导航
查看: 825|回复: 16

[喜剧] 800颗子弹 800.Bullets.2002.1080p.BluRay.x264-USURY 9.85GB

[复制链接]
  • TA的每日心情
    开心
    3 天前
  • 签到天数: 132 天

    [LV.7]常住居民III

    2496

    主题

    2630

    帖子

    5742

    积分

    发布组

    积分
    5742
    发表于 2021-3-28 19:42:52 | 显示全部楼层 |阅读模式
    1. 帖子完整标题:800颗子弹 800.Bullets.2002.1080p.BluRay.x264-USURY 9.85GB
    复制代码
    800颗子弹 800.Bullets.2002.1080p.BluRay.x264-USURY 9.85GB-1.png


    译  名 800颗子弹 / 800 balas
    片  名 800 Bullets
    年  代 2002
    产  地 西班牙
    类  别 剧情 / 喜剧 / 犯罪 / 西部
    语  言 西班牙语 / 英语 / 意大利语
    上映日期 2002-10-18
    IMDb评分  6.4/10 from 4103 users
    IMDb链接  https://www.imdb.com/title/tt0292886
    豆瓣评分 7.2/10 from 257 users
    豆瓣链接 https://movie.douban.com/subject/1440682/
    片  长 124 分钟
    导  演 álex de la Iglesia
    主  演 Sancho Gracia
           ángel de Andrés López ....
           Carmen Maura


    标  签 西班牙 | 喜剧 | 800子弹 | 西班牙电影 | 西部片 | 2002 | 西部 | álexDeLaIglesia

    简  介   

      一部向欧洲意大利西部致敬的疯狂幽默的动作片。西班牙最具有鲜明个性的新锐导演的的最新作 品,将带着观众游历整个欧洲大陆以及回顾整个欧洲西部片历史。
    1. Video
    2. ID                                       : 1
    3. Format                                   : AVC
    4. Format/Info                              : Advanced Video Codec
    5. Format profile                           : High@L4
    6. Format settings                          : CABAC / 5 Ref Frames
    7. Format settings, CABAC                   : Yes
    8. Format settings, Reference frames        : 5 frames
    9. Codec ID                                 : V_MPEG4/ISO/AVC
    10. Duration                                 : 2 h 6 min
    11. Bit rate                                 : 10.5 Mb/s
    12. Width                                    : 1 920 pixels
    13. Height                                   : 808 pixels
    14. Display aspect ratio                     : 2.40:1
    15. Frame rate mode                          : Constant
    16. Frame rate                               : 24.000 FPS
    17. Color space                              : YUV
    18. Chroma subsampling                       : 4:2:0
    19. Bit depth                                : 8 bits
    20. Scan type                                : Progressive
    21. Bits/(Pixel*Frame)                       : 0.282
    22. Stream size                              : 9.27 GiB (94%)
    23. Writing library                          : x264 core 157 r2969 d4099dd
    24. Encoding settings                        : cabac=1 / ref=5 / deblock=1:-3:-3 / analyse=0x3:0x133 / me=umh / subme=9 / psy=1 / psy_rd=1.00:0.00 / mixed_ref=1 / me_range=16 / chroma_me=1 / trellis=2 / 8x8dct=1 / cqm=0 / deadzone=21,11 / fast_pskip=0 / chroma_qp_offset=-2 / threads=18 / lookahead_threads=1 / sliced_threads=0 / nr=0 / decimate=1 / interlaced=0 / bluray_compat=0 / constrained_intra=0 / bframes=3 / b_pyramid=2 / b_adapt=1 / b_bias=0 / direct=3 / weightb=1 / open_gop=0 / weightp=2 / keyint=240 / keyint_min=24 / scenecut=40 / intra_refresh=0 / rc_lookahead=50 / rc=2pass / mbtree=1 / bitrate=10494 / ratetol=1.0 / qcomp=0.60 / qpmin=0 / qpmax=69 / qpstep=4 / cplxblur=20.0 / qblur=0.5 / ip_ratio=1.40 / aq=1:1.00
    25. Language                                 : English
    26. Default                                  : Yes
    27. Forced                                   : No

    28. Audio
    29. ID                                       : 2
    30. Format                                   : AC-3
    31. Format/Info                              : Audio Coding 3
    32. Commercial name                          : Dolby Digital
    33. Codec ID                                 : A_AC3
    34. Duration                                 : 2 h 6 min
    35. Bit rate mode                            : Constant
    36. Bit rate                                 : 640 kb/s
    37. Channel(s)                               : 6 channels
    38. Channel layout                           : L R C LFE Ls Rs
    39. Sampling rate                            : 48.0 kHz
    40. Frame rate                               : 31.250 FPS (1536 SPF)
    41. Compression mode                         : Lossy
    42. Stream size                              : 579 MiB (6%)
    43. Language                                 : Spanish
    44. Service kind                             : Complete Main
    45. Default                                  : Yes
    46. Forced                                   : No

    47. Text
    48. ID                                       : 3
    49. Format                                   : UTF-8
    50. Codec ID                                 : S_TEXT/UTF8
    51. Codec ID/Info                            : UTF-8 Plain Text
    52. Duration                                 : 1 h 59 min
    53. Bit rate                                 : 57 b/s
    54. Count of elements                        : 1983
    55. Stream size                              : 50.5 KiB (0%)
    56. Title                                    : English
    57. Language                                 : English
    58. Default                                  : Yes
    59. Forced                                   : Yes

    60. Menu
    61. 00:00:00.000                             : en:00:00:00.000
    62. 00:14:17.333                             : en:00:14:17.333
    63. 00:30:21.625                             : en:00:30:21.625
    64. 00:42:03.667                             : en:00:42:03.667
    65. 00:51:18.625                             : en:00:51:18.625
    66. 01:00:07.500                             : en:01:00:07.500
    67. 01:09:27.833                             : en:01:09:27.833
    68. 01:23:47.958                             : en:01:23:47.958
    69. 01:33:09.792                             : en:01:33:09.792
    70. 01:43:37.333                             : en:01:43:37.333
    71. 01:54:12.625                             : en:01:54:12.625
    72. 02:02:55.000                             : en:02:02:55.000
    复制代码

    800颗子弹 800.Bullets.2002.1080p.BluRay.x264-USURY 9.85GB-2.png
    本帖隐藏的内容需要VIP会员才可浏览,您需要升级才可浏览,点击这里升级VIP





    回复

    使用道具 举报

    该用户从未签到

    0

    主题

    2万

    帖子

    1万

    积分

    论坛元老

    Rank: 8Rank: 8

    积分
    18633
    发表于 2021-3-28 19:43:04 | 显示全部楼层
    回复 支持 反对

    使用道具 举报

  • TA的每日心情
    开心
    2016-6-1 14:06
  • 签到天数: 1 天

    [LV.1]初来乍到

    0

    主题

    1142

    帖子

    696

    积分

    高级会员

    Rank: 4

    积分
    696
    发表于 2021-3-28 20:28:45 | 显示全部楼层
    回复 支持 反对

    使用道具 举报

    该用户从未签到

    0

    主题

    2万

    帖子

    1万

    积分

    论坛元老

    Rank: 8Rank: 8

    积分
    19894
    发表于 2021-3-28 20:52:16 | 显示全部楼层
    感谢楼主的无私分享!要想蓝光高清电影网好 就靠你我他
    回复 支持 反对

    使用道具 举报

    该用户从未签到

    0

    主题

    628

    帖子

    279

    积分

    中级会员

    Rank: 3Rank: 3

    积分
    279
    发表于 2021-3-28 20:55:46 | 显示全部楼层
    回复 支持 反对

    使用道具 举报

    该用户从未签到

    0

    主题

    632

    帖子

    493

    积分

    中级会员

    Rank: 3Rank: 3

    积分
    493
    发表于 2021-3-28 21:19:19 | 显示全部楼层
    回复 支持 反对

    使用道具 举报

    该用户从未签到

    0

    主题

    2万

    帖子

    1万

    积分

    论坛元老

    Rank: 8Rank: 8

    积分
    18633
    发表于 2021-3-28 21:24:08 | 显示全部楼层
    回复 支持 反对

    使用道具 举报

    该用户从未签到

    0

    主题

    2548

    帖子

    2121

    积分

    金牌会员

    Rank: 6Rank: 6

    积分
    2121
    发表于 2021-3-28 21:38:58 | 显示全部楼层
    回复 支持 反对

    使用道具 举报

    该用户从未签到

    0

    主题

    1211

    帖子

    657

    积分

    高级会员

    Rank: 4

    积分
    657
    发表于 2021-3-28 22:24:36 | 显示全部楼层
    回复 支持 反对

    使用道具 举报

  • TA的每日心情
    开心
    8 小时前
  • 签到天数: 276 天

    [LV.8]以坛为家I

    4

    主题

    885

    帖子

    3169

    积分

    论坛元老

    Rank: 8Rank: 8

    积分
    3169
    发表于 2021-3-29 01:05:19 | 显示全部楼层
    回复 支持 反对

    使用道具 举报

    懒得打字嘛,点击右侧快捷回复 【右侧内容,后台自定义】
    您需要登录后才可以回帖 登录 | 立即注册

    本版积分规则

    郑重声明,本站所有作品片源来自互联网公开渠道,均为网友上传交流学习,影视版权均归原电影公司所有,如有侵犯版权,请与 2322694662@qq.com 联系,我们将立即删除。

    小黑屋|手机版|Archiver|百度统计|投诉|蓝光电影下载

    GMT+8, 2021-11-29 09:51 , Processed in 0.143370 second(s), 27 queries , Gzip On, MemCached On.

    Powered by Discuz! X3.4

    © 2001-2013 Comsenz Inc.

    快速回复 返回顶部 返回列表