快捷导航
查看: 39|回复: 9

[爱情] 弗兰兹/双面法兰兹 Frantz.2016.LIMITED.1080p.BluRay.x264-USURY 9.83GB

[复制链接]
  • TA的每日心情

    2021-4-27 18:29
  • 签到天数: 36 天

    [LV.5]常住居民I

    1162

    主题

    1198

    帖子

    2060

    积分

    发布组

    积分
    2060
    发表于 2021-4-14 17:02:30 | 显示全部楼层 |阅读模式
    1. 帖子完整标题:弗兰兹/双面法兰兹 Frantz.2016.LIMITED.1080p.BluRay.x264-USURY 9.83GB
    复制代码
    弗兰兹/双面法兰兹 Frantz.2016.LIMITED.1080p.BluRay.x264-USURY 9.83GB-1.png


    译  名 弗兰兹 / 双面法兰兹(台) / 爱的替身(港)
    片  名 Frantz
    年  代 2016
    产  地 法国 / 德国
    类  别 剧情 / 爱情 / 历史 / 战争
    语  言 法语 / 德语
    上映日期 2016-09-03(威尼斯电影节) / 2016-09-07(法国)
    IMDb评分  7.5/10 from 12559 users
    IMDb链接  https://www.imdb.com/title/tt5029608
    豆瓣评分 8.4/10 from 27594 users
    豆瓣链接 https://movie.douban.com/subject/26616719/
    片  长 113分钟
    导  演 弗朗索瓦·欧容 Fran?ois Ozon
    编  剧 弗朗索瓦·欧容 Fran?ois Ozon / 菲利普·皮亚佐 Philippe Piazzo
    主  演 皮埃尔·尼内 Pierre Niney
           葆拉·贝尔 Paula Beer
           恩斯特·施托兹 Ernst St?tzner
           玛丽·格鲁伯 Marie Gruber
           约翰·冯·比罗 Johann von Bülow
           安东·范·卢克 Anton von Lucke
           谢丽埃勒·克莱尔 Cyrielle Clair
           阿丽丝·德·朗克桑 Alice de Lencquesaing
           阿克塞尔·旺克 Axel Wandtke
           赖纳·埃格 Rainer Egger
           赖纳·希尔贝斯奈德 Rainer Silberschneider
           梅林·罗斯 Merlin Rose


    标  签 法国 | 爱情 | 战争 | 文艺 | 德国 | 黑白 | 剧情 | 2016

    简  介   

      法国导演弗朗索瓦·欧容在沉寂两年后,终于带着皮埃尔·尼内、葆拉·贝尔主演的《弗兰兹》杀回影坛。影片将以一战后的法国为背景,聚焦贝尔饰演的德国女人正因未婚夫的惨死而悲痛欲绝,尼内饰演的神秘法国男子却悄然出现,默默为其未婚夫墓碑致哀、献花,两人也就此揭开一段匪夷所思的往事。

    获奖情况  

      第73届威尼斯电影节(2016)
      主竞赛单元 金狮奖 (提名) 弗朗索瓦·欧容
      马塞洛·马斯托依安尼奖(新锐演员奖) 葆拉·贝尔

      第30届欧洲电影奖(2017)
      最佳女主角(提名) 葆拉·贝尔
      最佳编剧(提名) 弗朗索瓦·欧容

      第42届法国凯撒电影奖(2017)
      最佳影片(提名)
      最佳导演(提名) 弗朗索瓦·欧容
      最佳男主角(提名) 皮埃尔·尼内
      最佳新人女演员(提名) 葆拉·贝尔
      最佳改编剧本(提名) 弗朗索瓦·欧容
      最佳摄影
      最佳剪辑(提名)
      最佳原创音乐(提名)
      最佳音效(提名)
      最佳服装(提名)
      最佳布景(提名)

      第89届美国国家评论协会奖(2017)
      五佳外语片

      第4届豆瓣电影年度榜单(2017)
      评分最高的欧洲电影(提名)
      评分最高的爱情片(提名)
    1. Video
    2. ID                                       : 1
    3. Format                                   : AVC
    4. Format/Info                              : Advanced Video Codec
    5. Format profile                           : High@L4
    6. Format settings                          : CABAC / 5 Ref Frames
    7. Format settings, CABAC                   : Yes
    8. Format settings, Reference frames        : 5 frames
    9. Codec ID                                 : V_MPEG4/ISO/AVC
    10. Duration                                 : 1 h 53 min
    11. Bit rate                                 : 10.9 Mb/s
    12. Width                                    : 1 920 pixels
    13. Height                                   : 808 pixels
    14. Display aspect ratio                     : 2.40:1
    15. Frame rate mode                          : Constant
    16. Frame rate                               : 23.976 (24000/1001/189150) FPS
    17. Color space                              : YUV
    18. Chroma subsampling                       : 4:2:0
    19. Bit depth                                : 8 bits
    20. Scan type                                : Progressive
    21. Bits/(Pixel*Frame)                       : 0.292
    22. Stream size                              : 8.63 GiB (88%)
    23. Writing library                          : x264 core 150 r2829 d1fe6fd
    24. Encoding settings                        : cabac=1 / ref=5 / deblock=1:-3:-3 / analyse=0x3:0x133 / me=umh / subme=9 / psy=1 / psy_rd=1.00:0.00 / mixed_ref=1 / me_range=16 / chroma_me=1 / trellis=2 / 8x8dct=1 / cqm=0 / deadzone=21,11 / fast_pskip=0 / chroma_qp_offset=-2 / threads=18 / lookahead_threads=1 / sliced_threads=0 / nr=0 / decimate=1 / interlaced=0 / bluray_compat=0 / constrained_intra=0 / bframes=3 / b_pyramid=2 / b_adapt=1 / b_bias=0 / direct=3 / weightb=1 / open_gop=0 / weightp=2 / keyint=250 / keyint_min=23 / scenecut=40 / intra_refresh=0 / rc_lookahead=50 / rc=2pass / mbtree=1 / bitrate=10850 / ratetol=1.0 / qcomp=0.60 / qpmin=0 / qpmax=69 / qpstep=4 / cplxblur=20.0 / qblur=0.5 / ip_ratio=1.40 / aq=1:1.00
    25. Language                                 : English
    26. Default                                  : Yes
    27. Forced                                   : No

    28. Audio
    29. ID                                       : 2
    30. Format                                   : DTS
    31. Format/Info                              : Digital Theater Systems
    32. Codec ID                                 : A_DTS
    33. Duration                                 : 1 h 53 min
    34. Bit rate mode                            : Constant
    35. Bit rate                                 : 1 509 kb/s
    36. Channel(s)                               : 6 channels
    37. Channel layout                           : C L R Ls Rs LFE
    38. Sampling rate                            : 48.0 kHz
    39. Frame rate                               : 93.750 FPS (512 SPF)
    40. Bit depth                                : 24 bits
    41. Compression mode                         : Lossy
    42. Stream size                              : 1.20 GiB (12%)
    43. Language                                 : French
    44. Default                                  : Yes
    45. Forced                                   : No

    46. Text
    47. ID                                       : 3
    48. Format                                   : UTF-8
    49. Codec ID                                 : S_TEXT/UTF8
    50. Codec ID/Info                            : UTF-8 Plain Text
    51. Duration                                 : 1 h 47 min
    52. Bit rate                                 : 33 b/s
    53. Count of elements                        : 1073
    54. Stream size                              : 26.6 KiB (0%)
    55. Title                                    : forced
    56. Language                                 : English
    57. Default                                  : Yes
    58. Forced                                   : Yes

    59. Menu
    60. 00:00:00.000                             : en:00:00:00.000
    61. 00:07:45.799                             : en:00:07:45.799
    62. 00:12:39.676                             : en:00:12:39.676
    63. 00:21:03.012                             : en:00:21:03.012
    64. 00:26:50.526                             : en:00:26:50.526
    65. 00:35:56.154                             : en:00:35:56.154
    66. 00:42:07.900                             : en:00:42:07.900
    67. 00:46:08.766                             : en:00:46:08.766
    68. 00:54:22.092                             : en:00:54:22.092
    69. 01:05:54.826                             : en:01:05:54.826
    70. 01:13:22.148                             : en:01:13:22.148
    71. 01:18:45.179                             : en:01:18:45.179
    72. 01:28:20.879                             : en:01:28:20.879
    73. 01:35:08.494                             : en:01:35:08.494
    74. 01:42:07.747                             : en:01:42:07.747
    75. 01:49:47.289                             : en:01:49:47.289
    复制代码

    弗兰兹/双面法兰兹 Frantz.2016.LIMITED.1080p.BluRay.x264-USURY 9.83GB-2.png
    本帖隐藏的内容需要VIP会员才可浏览,您需要升级才可浏览,点击这里升级VIP





    回复

    使用道具 举报

    该用户从未签到

    0

    主题

    1万

    帖子

    1万

    积分

    论坛元老

    Rank: 8Rank: 8

    积分
    14219
    发表于 2021-4-14 17:02:42 | 显示全部楼层
    回复 支持 反对

    使用道具 举报

    该用户从未签到

    0

    主题

    2万

    帖子

    2万

    积分

    论坛元老

    Rank: 8Rank: 8

    积分
    22944
    发表于 2021-4-14 18:27:09 | 显示全部楼层
    感谢楼主的无私分享!要想蓝光高清电影网好 就靠你我他
    回复 支持 反对

    使用道具 举报

    该用户从未签到

    0

    主题

    740

    帖子

    633

    积分

    高级会员

    Rank: 4

    积分
    633
    发表于 2021-4-19 03:41:09 | 显示全部楼层
    回复 支持 反对

    使用道具 举报

    该用户从未签到

    0

    主题

    1万

    帖子

    1万

    积分

    论坛元老

    Rank: 8Rank: 8

    积分
    14219
    发表于 2021-4-19 04:45:36 | 显示全部楼层

    是个好电影!必须要看的!多谢分享!
    回复 支持 反对

    使用道具 举报

    该用户从未签到

    0

    主题

    1万

    帖子

    1万

    积分

    论坛元老

    Rank: 8Rank: 8

    积分
    14259
    发表于 2021-4-19 10:22:50 | 显示全部楼层
    这个帖子不回对不起自己!我想我是一天也不能离开蓝光电影网
    回复 支持 反对

    使用道具 举报

    该用户从未签到

    0

    主题

    1万

    帖子

    1万

    积分

    论坛元老

    Rank: 8Rank: 8

    积分
    14219
    发表于 2021-4-26 12:58:17 | 显示全部楼层

    非常精彩的电影,下来收藏,感谢楼主
    回复 支持 反对

    使用道具 举报

    该用户从未签到

    0

    主题

    735

    帖子

    431

    积分

    中级会员

    Rank: 3Rank: 3

    积分
    431
    发表于 2021-5-2 10:13:39 | 显示全部楼层
    楼主太厉害了!楼主,电影应该很好看我觉得蓝光电影下载真是个好地方!
    回复 支持 反对

    使用道具 举报

    该用户从未签到

    0

    主题

    2万

    帖子

    2万

    积分

    论坛元老

    Rank: 8Rank: 8

    积分
    22944
    发表于 7 天前 | 显示全部楼层
    回复 支持 反对

    使用道具 举报

    该用户从未签到

    0

    主题

    3681

    帖子

    2875

    积分

    金牌会员

    Rank: 6Rank: 6

    积分
    2875
    发表于 7 天前 | 显示全部楼层
    回复 支持 反对

    使用道具 举报

    懒得打字嘛,点击右侧快捷回复 【右侧内容,后台自定义】
    您需要登录后才可以回帖 登录 | 立即注册

    本版积分规则

    郑重声明,本站所有作品片源来自互联网公开渠道,均为网友上传交流学习,影视版权均归原电影公司所有,如有侵犯版权,请与 2322694662@qq.com 联系,我们将立即删除。

    小黑屋|手机版|Archiver|百度统计|投诉|蓝光电影下载

    GMT+8, 2021-5-11 11:20 , Processed in 0.027971 second(s), 22 queries , Gzip On, MemCached On.

    Powered by Discuz! X3.4

    © 2001-2013 Comsenz Inc.

    快速回复 返回顶部 返回列表