快捷导航
查看: 39|回复: 12

[爱情] 圆月映花都 Full.Moon.in.Paris.1984.REMASTERED.1080p.BluRay.x264-USURY 14.46GB

[复制链接]
  • TA的每日心情

    2021-4-27 18:29
  • 签到天数: 36 天

    [LV.5]常住居民I

    1162

    主题

    1198

    帖子

    2060

    积分

    发布组

    积分
    2060
    发表于 2021-4-15 18:38:34 | 显示全部楼层 |阅读模式
    1. 帖子完整标题:圆月映花都 Full.Moon.in.Paris.1984.REMASTERED.1080p.BluRay.x264-USURY 14.46GB
    复制代码
    圆月映花都 Full.Moon.in.Paris.1984.REMASTERED.1080p.BluRay.x264-USURY 14.46GB-1.jpeg


    译  名 圆月映花都 / Full Moon in Paris / 月满巴黎
    片  名 Les nuits de la pleine lune
    年  代 1984
    产  地 法国
    类  别 剧情 / 爱情
    语  言 法语
    上映日期 1984-08-29
    IMDb评分  7.5/10 from 3104 users
    IMDb链接  https://www.imdb.com/title/tt0087821
    豆瓣评分 7.9/10 from 2557 users
    豆瓣链接 https://movie.douban.com/subject/1292619/
    片  长 100 分钟
    导  演 Eric Rohmer
    编  剧 Eric Rohmer
    主  演 Pascale Ogier
           Tchéky Karyo
           Fabrice Luchini


    标  签 法国 | 侯麦 | 埃里克·侯麦 | 法国电影 | EricRohmer | 爱情 | 新浪潮 | 1984

    简  介   

      和导演埃里克·侯麦往常的影片一样,该片讲述了一个女孩徘徊在多个男人之间企图寻找自我的故事,通过人物之间的大量对话细腻而又真实的展现了男人和女人之间充满了变数的感情世界,虽为喜剧,亦展现了情感的无奈和多变,发人深思。
      路易斯(帕斯卡·欧吉尔 Pascale Ogier 饰)天性活泼善变,从艺术院校毕业之后,她同对她忠心耿耿的男友订了婚。然而,平静的感情生活让喜欢追求刺激的路易斯感到十分空虚,拥有着姣好面容的她深信自己在异性之中的魅力不减,因此,她义无反顾的决定结束和未婚夫的同居生活,返回巴黎。在那里,珍娜先后邂逅了数个不同的男人,在一连串的矛盾和波折面前,她终于领悟到了什么才是生命中最珍贵的东西。

    获奖情况  

      第41届威尼斯电影节(1984)
      主竞赛单元 金狮奖 (提名) 埃里克·侯麦
      沃尔皮杯 最佳女演员 帕斯卡·欧吉尔
    1. Video
    2. ID                                       : 1
    3. Format                                   : AVC
    4. Format/Info                              : Advanced Video Codec
    5. Format profile                           : High@L4
    6. Format settings                          : CABAC / 5 Ref Frames
    7. Format settings, CABAC                   : Yes
    8. Format settings, Reference frames        : 5 frames
    9. Codec ID                                 : V_MPEG4/ISO/AVC
    10. Duration                                 : 1 h 41 min
    11. Bit rate                                 : 19.7 Mb/s
    12. Width                                    : 1 440 pixels
    13. Height                                   : 1 080 pixels
    14. Display aspect ratio                     : 4:3
    15. Frame rate mode                          : Constant
    16. Frame rate                               : 23.976 (24000/1001/189150) FPS
    17. Color space                              : YUV
    18. Chroma subsampling                       : 4:2:0
    19. Bit depth                                : 8 bits
    20. Scan type                                : Progressive
    21. Bits/(Pixel*Frame)                       : 0.527
    22. Stream size                              : 14.0 GiB (97%)
    23. Writing library                          : x264 core 161 r3018 db0d417
    24. Encoding settings                        : cabac=1 / ref=5 / deblock=1:-3:-3 / analyse=0x3:0x133 / me=umh / subme=10 / psy=1 / psy_rd=1.00:0.15 / mixed_ref=1 / me_range=24 / chroma_me=1 / trellis=2 / 8x8dct=1 / cqm=0 / deadzone=21,11 / fast_pskip=1 / chroma_qp_offset=-3 / threads=18 / lookahead_threads=3 / sliced_threads=0 / nr=0 / decimate=1 / interlaced=0 / bluray_compat=0 / constrained_intra=0 / bframes=8 / b_pyramid=2 / b_adapt=2 / b_bias=0 / direct=3 / weightb=1 / open_gop=0 / weightp=2 / keyint=250 / keyint_min=23 / scenecut=40 / intra_refresh=0 / rc_lookahead=60 / rc=crf / mbtree=1 / crf=17.5 / qcomp=0.60 / qpmin=0 / qpmax=69 / qpstep=4 / ip_ratio=1.40 / aq=3:0.50
    25. Language                                 : English
    26. Default                                  : Yes
    27. Forced                                   : No
    28. Color range                              : Limited
    29. Matrix coefficients                      : BT.709

    30. Audio
    31. ID                                       : 2
    32. Format                                   : FLAC
    33. Format/Info                              : Free Lossless Audio Codec
    34. Codec ID                                 : A_FLAC
    35. Duration                                 : 1 h 41 min
    36. Bit rate mode                            : Variable
    37. Bit rate                                 : 662 kb/s
    38. Channel(s)                               : 1 channel
    39. Channel layout                           : C
    40. Sampling rate                            : 48.0 kHz
    41. Frame rate                               : 11.719 FPS (4096 SPF)
    42. Bit depth                                : 24 bits
    43. Compression mode                         : Lossless
    44. Stream size                              : 482 MiB (3%)
    45. Writing library                          : libFLAC 1.2.1 (UTC 2007-09-17)
    46. Language                                 : French
    47. Default                                  : Yes
    48. Forced                                   : No

    49. Text #1
    50. ID                                       : 3
    51. Format                                   : UTF-8
    52. Codec ID                                 : S_TEXT/UTF8
    53. Codec ID/Info                            : UTF-8 Plain Text
    54. Duration                                 : 1 h 38 min
    55. Bit rate                                 : 49 b/s
    56. Count of elements                        : 1196
    57. Stream size                              : 35.6 KiB (0%)
    58. Title                                    : English
    59. Language                                 : English
    60. Default                                  : Yes
    61. Forced                                   : Yes

    62. Text #2
    63. ID                                       : 4
    64. Format                                   : PGS
    65. Muxing mode                              : zlib
    66. Codec ID                                 : S_HDMV/PGS
    67. Codec ID/Info                            : Picture based subtitle format used on BDs/HD-DVDs
    68. Duration                                 : 1 h 38 min
    69. Bit rate                                 : 11.1 kb/s
    70. Count of elements                        : 2392
    71. Stream size                              : 7.88 MiB (0%)
    72. Title                                    : English
    73. Language                                 : English
    74. Default                                  : No
    75. Forced                                   : No

    76. Menu
    77. 00:00:00.000                             : en:00:00:00.000
    78. 00:07:16.645                             : en:00:07:16.645
    79. 00:15:25.341                             : en:00:15:25.341
    80. 00:20:54.253                             : en:00:20:54.253
    81. 00:28:40.886                             : en:00:28:40.886
    82. 00:41:16.265                             : en:00:41:16.265
    83. 00:49:18.414                             : en:00:49:18.414
    84. 01:00:46.017                             : en:01:00:46.017
    85. 01:10:07.453                             : en:01:10:07.453
    86. 01:16:43.516                             : en:01:16:43.516
    87. 01:25:08.854                             : en:01:25:08.854
    88. 01:33:55.088                             : en:01:33:55.088
    复制代码

    圆月映花都 Full.Moon.in.Paris.1984.REMASTERED.1080p.BluRay.x264-USURY 14.46GB-2.jpeg
    本帖隐藏的内容需要VIP会员才可浏览,您需要升级才可浏览,点击这里升级VIP





    回复

    使用道具 举报

  • TA的每日心情

    2020-12-3 18:08
  • 签到天数: 1 天

    [LV.1]初来乍到

    0

    主题

    270

    帖子

    24

    积分

    新手上路

    Rank: 1

    积分
    24
    发表于 2021-4-15 18:39:09 | 显示全部楼层
    提示: 作者被禁止或删除 内容自动屏蔽
    回复 支持 反对

    使用道具 举报

    该用户从未签到

    0

    主题

    1万

    帖子

    1万

    积分

    论坛元老

    Rank: 8Rank: 8

    积分
    14219
    发表于 2021-4-15 21:10:15 | 显示全部楼层
    回复 支持 反对

    使用道具 举报

    该用户从未签到

    0

    主题

    3848

    帖子

    2186

    积分

    金牌会员

    Rank: 6Rank: 6

    积分
    2186
    发表于 2021-4-17 00:21:44 | 显示全部楼层
    回复 支持 反对

    使用道具 举报

    该用户从未签到

    0

    主题

    2万

    帖子

    2万

    积分

    论坛元老

    Rank: 8Rank: 8

    积分
    22944
    发表于 2021-4-17 17:48:06 | 显示全部楼层
    感谢楼主的无私分享!要想蓝光高清电影网好 就靠你我他
    回复 支持 反对

    使用道具 举报

    该用户从未签到

    0

    主题

    2万

    帖子

    2万

    积分

    论坛元老

    Rank: 8Rank: 8

    积分
    22944
    发表于 2021-4-23 09:21:02 | 显示全部楼层
    回复 支持 反对

    使用道具 举报

    该用户从未签到

    0

    主题

    1万

    帖子

    1万

    积分

    论坛元老

    Rank: 8Rank: 8

    积分
    14259
    发表于 2021-4-23 14:03:32 | 显示全部楼层
    回复 支持 反对

    使用道具 举报

    该用户从未签到

    0

    主题

    886

    帖子

    626

    积分

    高级会员

    Rank: 4

    积分
    626
    发表于 2021-5-1 07:44:28 | 显示全部楼层

    是个好电影!必须要看的!多谢分享!
    回复 支持 反对

    使用道具 举报

    该用户从未签到

    0

    主题

    2万

    帖子

    2万

    积分

    论坛元老

    Rank: 8Rank: 8

    积分
    22944
    发表于 2021-5-2 10:21:53 | 显示全部楼层
    回复 支持 反对

    使用道具 举报

    该用户从未签到

    0

    主题

    3488

    帖子

    2334

    积分

    金牌会员

    Rank: 6Rank: 6

    积分
    2334
    发表于 2021-5-3 06:12:25 | 显示全部楼层
    楼主太厉害了!楼主,电影应该很好看我觉得蓝光电影下载真是个好地方!
    回复 支持 反对

    使用道具 举报

    懒得打字嘛,点击右侧快捷回复 【右侧内容,后台自定义】
    您需要登录后才可以回帖 登录 | 立即注册

    本版积分规则

    郑重声明,本站所有作品片源来自互联网公开渠道,均为网友上传交流学习,影视版权均归原电影公司所有,如有侵犯版权,请与 2322694662@qq.com 联系,我们将立即删除。

    小黑屋|手机版|Archiver|百度统计|投诉|蓝光电影下载

    GMT+8, 2021-5-11 11:52 , Processed in 0.059281 second(s), 23 queries , Gzip On, MemCached On.

    Powered by Discuz! X3.4

    © 2001-2013 Comsenz Inc.

    快速回复 返回顶部 返回列表