快捷导航
查看: 48|回复: 13

[喜剧] 布克和海尔 Burke.and.Hare.2010.1080p.BluRay.x264-AVCHD 6.55GB

[复制链接]
  • TA的每日心情
    无聊
    2021-4-27 18:29
  • 签到天数: 45 天

    [LV.5]常住居民I

    1144

    主题

    1191

    帖子

    2332

    积分

    发布组

    积分
    2332
    发表于 2021-4-24 15:37:14 | 显示全部楼层 |阅读模式
    1. 帖子完整标题:布克和海尔 Burke.and.Hare.2010.1080p.BluRay.x264-AVCHD 6.55GB
    复制代码
    布克和海尔 Burke.and.Hare.2010.1080p.BluRay.x264-AVCHD 6.55GB-1.png


    译  名 布克和海尔/Burke and Hare
    片  名 Burke and Hare
    年  代 2010
    产  地 英国
    类  别 喜剧 / 惊悚
    语  言 英语
    上映日期 2010-10-29(英国)
    IMDb评分  6.2/10 from 19129 users
    IMDb链接  https://www.imdb.com/title/tt1320239/
    豆瓣评分 6.7/10 from 2269 users
    豆瓣链接 https://movie.douban.com/subject/3305719/
    片  长 91分钟
    导  演 约翰·兰迪斯 John Landis
    编  剧 尼克·默克罗夫特 Nick Moorcroft
    主  演 西蒙·佩吉 Simon Pegg
           安迪·瑟金斯 Andy Serkis
           艾拉·菲舍尔 Isla Fisher
           明妮·德里弗 Minnie Driver
           迈克尔·史麦利 Michael Smiley
           里斯·谢尔史密斯 Reece Shearsmith
           克里斯托弗·李 Christopher Lee
           比尔·贝利 Bill Bailey
           休·博纳维尔 Hugh Bonneville
           汤姆·威尔金森 Tom Wilkinson
           蒂姆·克里 Tim Curry
           科斯塔-加夫拉斯 Costa-Gavras
           斯戴芬·莫昌特 Stephen Merchant
           杰西卡·海因斯 Jessica Hynes
           乔治雅·金 Georgia King
           珍妮·艾加特 Jenny Agutter
           丹·艾克罗伊德 Dan Aykroyd
           宝拉雅娜·麦金托什 Pollyanna McIntosh
           大卫·海曼 David Hayman
           阿兰·柯德勒 Allan Corduner
           克里斯蒂安·布拉辛顿 Christian Brassington
           Adam Smith
           罗恩尼·柯贝特 Ronnie Corbett
           约翰·伍德温 John Woodvine
           尼克·默克罗夫特 Nick Moorcroft
           夏兰·凯利 Ciaron Kelly
           Johnny Lynch
           查理·詹恩威 Charli Janeway
           保罗·戴维斯 Paul Davis
           罗曼·加夫拉斯 Romain Gavras

    标  签 英国 | 黑色幽默 | SimonPegg | 喜剧 | 英国电影 | 2010 | 真实事件改编 | 犯罪

    简  介

      电影根据真实事件改编。
      
      故事发生在19世纪动荡又混乱的英格兰,布克(西蒙·佩吉 Simon Pegg 饰)和海尔(安迪·瑟金斯 Andy Serkis 饰)是一对盗墓人,他们非法盗取墓穴中值钱的陪葬品,再将其换成数目可观的金钱纳入囊中。陪葬品毕竟有限,盗墓赚钱并不能让他们成为腰缠万贯的富翁,于是,邪恶的两人开始打起了尸体的主意。
      
      他们将尸体贩卖给了一个名叫罗伯特(汤姆·威尔金森 Tom Wilkinson 饰)的医生,从中赚取巨额利润,但随着时间的流逝,为数不多的死者已经逐渐无法满足海尔和布克越来越大的胃口,就这样,偷窃尸体的两人成为了制造尸体的两人。短短1年之内,就有17人在海尔和布克的屠刀下丧命,但在行凶作恶的同时,这两人也在向自己的坟墓迈进着。
    1. Video
    2. ID                                       : 1
    3. Format                                   : AVC
    4. Format/Info                              : Advanced Video Codec
    5. Format profile                           : High@L4
    6. Format settings                          : CABAC / 5 Ref Frames
    7. Format settings, CABAC                   : Yes
    8. Format settings, Reference frames        : 5 frames
    9. Codec ID                                 : V_MPEG4/ISO/AVC
    10. Duration                                 : 1 h 31 min
    11. Bit rate                                 : 8 751 kb/s
    12. Width                                    : 1 920 pixels
    13. Height                                   : 800 pixels
    14. Display aspect ratio                     : 2.40:1
    15. Frame rate mode                          : Constant
    16. Frame rate                               : 24.000 FPS
    17. Color space                              : YUV
    18. Chroma subsampling                       : 4:2:0
    19. Bit depth                                : 8 bits
    20. Scan type                                : Progressive
    21. Bits/(Pixel*Frame)                       : 0.237
    22. Stream size                              : 5.46 GiB (83%)
    23. Writing library                          : x264 core 114 r1900 60ef1f8
    24. Encoding settings                        : cabac=1 / ref=5 / deblock=1:0:0 / analyse=0x3:0x133 / me=umh / subme=7 / psy=1 / psy_rd=1.00:0.00 / mixed_ref=1 / me_range=16 / chroma_me=1 / trellis=1 / 8x8dct=1 / cqm=0 / deadzone=21,11 / fast_pskip=0 / chroma_qp_offset=-2 / threads=12 / sliced_threads=0 / nr=0 / decimate=1 / interlaced=0 / constrained_intra=0 / bframes=3 / b_pyramid=2 / b_adapt=1 / b_bias=0 / direct=1 / weightb=1 / open_gop=0 / weightp=2 / keyint=250 / keyint_min=24 / scenecut=40 / intra_refresh=0 / rc_lookahead=40 / rc=2pass / mbtree=1 / bitrate=8751 / ratetol=1.0 / qcomp=0.60 / qpmin=0 / qpmax=69 / qpstep=4 / cplxblur=20.0 / qblur=0.5 / ip_ratio=1.40 / aq=1:1.00
    25. Language                                 : English
    26. Default                                  : No
    27. Forced                                   : No

    28. Audio
    29. ID                                       : 2
    30. Format                                   : DTS
    31. Format/Info                              : Digital Theater Systems
    32. Codec ID                                 : A_DTS
    33. Duration                                 : 1 h 31 min
    34. Bit rate mode                            : Constant
    35. Bit rate                                 : 1 509 kb/s
    36. Channel(s)                               : 6 channels
    37. Channel layout                           : C L R Ls Rs LFE
    38. Sampling rate                            : 48.0 kHz
    39. Frame rate                               : 93.750 FPS (512 SPF)
    40. Bit depth                                : 24 bits
    41. Compression mode                         : Lossy
    42. Stream size                              : 987 MiB (15%)
    43. Language                                 : English
    44. Default                                  : Yes
    45. Forced                                   : No

    46. Text
    47. ID                                       : 3
    48. Format                                   : UTF-8
    49. Codec ID                                 : S_TEXT/UTF8
    50. Codec ID/Info                            : UTF-8 Plain Text
    51. Language                                 : English
    52. Default                                  : Yes
    53. Forced                                   : No
    复制代码

    布克和海尔 Burke.and.Hare.2010.1080p.BluRay.x264-AVCHD 6.55GB-2.png
    布克和海尔 Burke.and.Hare.2010.1080p.BluRay.x264-AVCHD 6.55GB-3.png

    本帖隐藏的内容需要VIP会员才可浏览,您需要升级才可浏览,点击这里升级VIP




    回复

    使用道具 举报

    该用户从未签到

    0

    主题

    2万

    帖子

    2万

    积分

    论坛元老

    Rank: 8Rank: 8

    积分
    22944
    发表于 2021-4-24 15:37:54 | 显示全部楼层
    回复 支持 反对

    使用道具 举报

    该用户从未签到

    0

    主题

    1万

    帖子

    1万

    积分

    论坛元老

    Rank: 8Rank: 8

    积分
    14219
    发表于 2021-4-24 15:41:09 | 显示全部楼层
    回复 支持 反对

    使用道具 举报

    该用户从未签到

    0

    主题

    2万

    帖子

    2万

    积分

    论坛元老

    Rank: 8Rank: 8

    积分
    22944
    发表于 2021-4-24 19:39:21 | 显示全部楼层
    楼主太厉害了!楼主,电影应该很好看我觉得蓝光电影下载真是个好地方!
    回复 支持 反对

    使用道具 举报

    该用户从未签到

    0

    主题

    1万

    帖子

    1万

    积分

    论坛元老

    Rank: 8Rank: 8

    积分
    14259
    发表于 2021-4-25 00:55:04 | 显示全部楼层
    回复 支持 反对

    使用道具 举报

    该用户从未签到

    0

    主题

    2万

    帖子

    2万

    积分

    论坛元老

    Rank: 8Rank: 8

    积分
    22944
    发表于 2021-4-25 09:59:31 | 显示全部楼层
    回复 支持 反对

    使用道具 举报

    该用户从未签到

    0

    主题

    448

    帖子

    188

    积分

    注册会员

    Rank: 2

    积分
    188
    发表于 2021-4-25 10:55:37 | 显示全部楼层
    感谢楼主的无私分享!要想蓝光高清电影网好 就靠你我他
    回复 支持 反对

    使用道具 举报

  • TA的每日心情
    开心
    前天 09:13
  • 签到天数: 44 天

    [LV.5]常住居民I

    0

    主题

    280

    帖子

    764

    积分

    高级会员

    Rank: 4

    积分
    764
    发表于 2021-4-25 11:34:11 | 显示全部楼层
    楼主发贴辛苦了,谢谢楼主分享!我觉得蓝光电影网是注册对了!
    回复 支持 反对

    使用道具 举报

    该用户从未签到

    0

    主题

    3847

    帖子

    2186

    积分

    金牌会员

    Rank: 6Rank: 6

    积分
    2186
    发表于 2021-4-25 11:34:11 | 显示全部楼层

    非常精彩的电影,下来收藏,感谢楼主
    回复 支持 反对

    使用道具 举报

    该用户从未签到

    0

    主题

    1万

    帖子

    1万

    积分

    论坛元老

    Rank: 8Rank: 8

    积分
    14259
    发表于 2021-4-25 17:19:49 | 显示全部楼层
    回复 支持 反对

    使用道具 举报

    懒得打字嘛,点击右侧快捷回复 【右侧内容,后台自定义】
    您需要登录后才可以回帖 登录 | 立即注册

    本版积分规则

    郑重声明,本站所有作品片源来自互联网公开渠道,均为网友上传交流学习,影视版权均归原电影公司所有,如有侵犯版权,请与 2322694662@qq.com 联系,我们将立即删除。

    小黑屋|手机版|Archiver|百度统计|投诉|蓝光电影下载

    GMT+8, 2021-5-11 11:21 , Processed in 0.030659 second(s), 23 queries , Gzip On, MemCached On.

    Powered by Discuz! X3.4

    © 2001-2013 Comsenz Inc.

    快速回复 返回顶部 返回列表