快捷导航
查看: 496|回复: 12

[爱情] 一个国家的诞生 The.Birth.of.a.Nation.1915.1080p.BluRay.x264-USURY 14.21GB

[复制链接]
  • TA的每日心情
    无聊
    3 天前
  • 签到天数: 61 天

    [LV.6]常住居民II

    1623

    主题

    1684

    帖子

    3125

    积分

    发布组

    积分
    3125
    发表于 2021-6-2 18:32:30 | 显示全部楼层 |阅读模式
    1. 帖子完整标题:一个国家的诞生 The.Birth.of.a.Nation.1915.1080p.BluRay.x264-USURY 14.21GB
    复制代码
    一个国家的诞生 The.Birth.of.a.Nation.1915.1080p.BluRay.x264-USURY 14.21GB-1.png


    译  名 一个国家的诞生/The Clansman/重见光明
    片  名 The Birth of a Nation
    年  代 1915
    产  地 美国
    类  别 剧情 / 爱情 / 历史 / 战争 / 西部
    语  言 无对白
    上映日期 1915-02-08(美国)
    IMDb评分  6.3/10 from 22212 users
    IMDb链接  https://www.imdb.com/title/tt0004972/
    豆瓣评分 7.9/10 from 7118 users
    豆瓣链接 https://movie.douban.com/subject/1300306/
    片  长 190 分钟(16 fps)
    导  演 大卫·格里菲斯 D.W. Griffith
    编  剧 大卫·格里菲斯 D.W. Griffith / 弗兰克·伍兹 Frank E. Woods / 小托马斯· 狄克逊 Thomas F. Dixon Jr.
    主  演 丽莲·吉许 Lillian Gish
           梅·马什 Mae Marsh
           亨利·B·沃斯奥 Henry B. Walthall
           米兰·库柏 Miriam Cooper
           埃里克·冯·施特罗海姆 Erich von Stroheim
           阿尔玛·鲁本斯 Alma Rubens
           尤金·佩里特 Eugene Pallette
           沃尔特·休斯顿 Walter Huston
           吉布森·格沃兰德 Gibson Gowland
           约翰·福特 John Ford
           华莱士·里德 Wallace Reid
           罗伯特·哈伦 Robert Harron
           唐纳德·克里斯普 Donald Crisp

    标  签 美国 | 格里菲斯 | 默片 | 经典 | 历史 | 美国电影 | 1915 | D.W.Griffith

    简  介

      美国南北战争时期,南方庄园主卡梅伦一家原本过着安逸的生活。卡梅隆和斯通曼家的孩子同在一所寄宿学校念书,接触中,年轻的本杰明·卡梅隆(亨利·B·沃斯奥 Henry B. Walthall饰)和埃尔西·斯通曼(丽莲·吉许 Lillian Gish饰)互生情愫。然而不久南北战争爆发。本杰明参加了南方军队,奔赴前线,与北方的昔日好友斯通曼(拉尔夫·李维斯 Ralph Lewis饰)成了敌手。战后,黑人烧杀抢掠。本杰明组织三K党,对黑人进行报复,粉碎了建立所谓的“黑人王国”的阴谋。本杰明与埃尔西这对患难情侣也终于走到了一起。他们的结合,预示着一个新的国家的诞生和统一。
      
      这部由美国电影巨匠D·W·格里菲斯编导的长达三个多小时的鸿篇巨制《一个国家的诞生》,是世界电影史上最重要的里程碑式电影,也是默片时代的经典之作。本片因为对白人优越主义的提倡,以及对三K党的美化而颇具争议性。
    1. Video
    2. ID                                       : 1
    3. Format                                   : AVC
    4. Format/Info                              : Advanced Video Codec
    5. Format profile                           : High@L4
    6. Format settings                          : CABAC / 4 Ref Frames
    7. Format settings, CABAC                   : Yes
    8. Format settings, Reference frames        : 4 frames
    9. Codec ID                                 : V_MPEG4/ISO/AVC
    10. Duration                                 : 3 h 11 min
    11. Bit rate                                 : 9 876 kb/s
    12. Width                                    : 1 424 pixels
    13. Height                                   : 1 080 pixels
    14. Display aspect ratio                     : 4:3
    15. Frame rate mode                          : Constant
    16. Frame rate                               : 24.000 FPS
    17. Color space                              : YUV
    18. Chroma subsampling                       : 4:2:0
    19. Bit depth                                : 8 bits
    20. Scan type                                : Progressive
    21. Bits/(Pixel*Frame)                       : 0.268
    22. Stream size                              : 13.2 GiB (93%)
    23. Writing library                          : x264 core 157 r2969 d4099dd
    24. Encoding settings                        : cabac=1 / ref=4 / deblock=1:-3:-3 / analyse=0x3:0x133 / me=umh / subme=9 / psy=1 / psy_rd=1.00:0.00 / mixed_ref=1 / me_range=16 / chroma_me=1 / trellis=2 / 8x8dct=1 / cqm=0 / deadzone=21,11 / fast_pskip=0 / chroma_qp_offset=-2 / threads=18 / lookahead_threads=1 / sliced_threads=0 / nr=0 / decimate=1 / interlaced=0 / bluray_compat=0 / constrained_intra=0 / bframes=3 / b_pyramid=2 / b_adapt=1 / b_bias=0 / direct=3 / weightb=1 / open_gop=0 / weightp=2 / keyint=240 / keyint_min=24 / scenecut=40 / intra_refresh=0 / rc_lookahead=50 / rc=2pass / mbtree=1 / bitrate=9876 / ratetol=1.0 / qcomp=0.60 / qpmin=0 / qpmax=69 / qpstep=4 / cplxblur=20.0 / qblur=0.5 / ip_ratio=1.40 / aq=1:1.00
    25. Language                                 : English
    26. Default                                  : Yes
    27. Forced                                   : No

    28. Audio
    29. ID                                       : 2
    30. Format                                   : DTS
    31. Format/Info                              : Digital Theater Systems
    32. Codec ID                                 : A_DTS
    33. Duration                                 : 3 h 11 min
    34. Bit rate mode                            : Constant
    35. Bit rate                                 : 768 kb/s
    36. Channel(s)                               : 6 channels
    37. Channel layout                           : C L R Ls Rs LFE
    38. Sampling rate                            : 48.0 kHz
    39. Frame rate                               : 93.750 FPS (512 SPF)
    40. Bit depth                                : 24 bits
    41. Compression mode                         : Lossy
    42. Stream size                              : 1.03 GiB (7%)
    43. Default                                  : Yes
    44. Forced                                   : No

    45. Menu
    46. 00:00:00.000                             : en:00:00:00.000
    47. 00:10:01.250                             : en:00:10:01.250
    48. 00:20:01.625                             : en:00:20:01.625
    49. 00:39:55.583                             : en:00:39:55.583
    50. 00:50:07.500                             : en:00:50:07.500
    51. 01:00:14.458                             : en:01:00:14.458
    52. 01:11:02.125                             : en:01:11:02.125
    53. 01:20:21.583                             : en:01:20:21.583
    54. 01:28:18.000                             : en:01:28:18.000
    55. 01:38:17.792                             : en:01:38:17.792
    56. 01:49:04.250                             : en:01:49:04.250
    57. 01:58:13.708                             : en:01:58:13.708
    58. 02:08:45.167                             : en:02:08:45.167
    59. 02:18:16.083                             : en:02:18:16.083
    60. 02:28:13.125                             : en:02:28:13.125
    61. 02:38:06.000                             : en:02:38:06.000
    62. 02:48:11.167                             : en:02:48:11.167
    63. 02:58:28.792                             : en:02:58:28.792
    复制代码

    一个国家的诞生 The.Birth.of.a.Nation.1915.1080p.BluRay.x264-USURY 14.21GB-2.png

    本帖隐藏的内容需要VIP会员才可浏览,您需要升级才可浏览,点击这里升级VIP




    回复

    使用道具 举报

    该用户从未签到

    0

    主题

    7680

    帖子

    7078

    积分

    论坛元老

    Rank: 8Rank: 8

    积分
    7078
    发表于 2021-6-2 18:32:46 | 显示全部楼层
    回复 支持 反对

    使用道具 举报

    该用户从未签到

    0

    主题

    2万

    帖子

    2万

    积分

    论坛元老

    Rank: 8Rank: 8

    积分
    25556
    发表于 2021-6-6 05:36:31 | 显示全部楼层
    回复 支持 反对

    使用道具 举报

  • TA的每日心情
    开心
    2016-6-1 14:06
  • 签到天数: 1 天

    [LV.1]初来乍到

    0

    主题

    962

    帖子

    696

    积分

    高级会员

    Rank: 4

    积分
    696
    发表于 2021-6-8 02:43:48 | 显示全部楼层

    是个好电影!必须要看的!多谢分享!
    回复 支持 反对

    使用道具 举报

    该用户从未签到

    0

    主题

    4202

    帖子

    3563

    积分

    论坛元老

    Rank: 8Rank: 8

    积分
    3563
    发表于 2021-6-8 16:27:08 | 显示全部楼层

    非常精彩的电影,下来收藏,感谢楼主
    回复 支持 反对

    使用道具 举报

    该用户从未签到

    0

    主题

    1万

    帖子

    1万

    积分

    论坛元老

    Rank: 8Rank: 8

    积分
    16777
    发表于 2021-6-8 16:35:38 | 显示全部楼层
    楼主太厉害了!楼主,电影应该很好看我觉得蓝光电影下载真是个好地方!
    回复 支持 反对

    使用道具 举报

    该用户从未签到

    0

    主题

    1万

    帖子

    1万

    积分

    论坛元老

    Rank: 8Rank: 8

    积分
    16777
    发表于 2021-6-8 23:21:31 | 显示全部楼层
    这个帖子不回对不起自己!我想我是一天也不能离开蓝光电影网
    回复 支持 反对

    使用道具 举报

    该用户从未签到

    0

    主题

    1万

    帖子

    1万

    积分

    论坛元老

    Rank: 8Rank: 8

    积分
    16777
    发表于 2021-6-9 11:54:30 | 显示全部楼层
    回复 支持 反对

    使用道具 举报

    该用户从未签到

    0

    主题

    2万

    帖子

    2万

    积分

    论坛元老

    Rank: 8Rank: 8

    积分
    25556
    发表于 2021-6-11 05:03:37 | 显示全部楼层
    回复 支持 反对

    使用道具 举报

    该用户从未签到

    0

    主题

    1987

    帖子

    1500

    积分

    金牌会员

    Rank: 6Rank: 6

    积分
    1500
    发表于 2021-6-13 20:35:15 | 显示全部楼层
    回复 支持 反对

    使用道具 举报

    懒得打字嘛,点击右侧快捷回复 【右侧内容,后台自定义】
    您需要登录后才可以回帖 登录 | 立即注册

    本版积分规则

    郑重声明,本站所有作品片源来自互联网公开渠道,均为网友上传交流学习,影视版权均归原电影公司所有,如有侵犯版权,请与 2322694662@qq.com 联系,我们将立即删除。

    小黑屋|手机版|Archiver|百度统计|投诉|蓝光电影下载

    GMT+8, 2021-6-22 15:43 , Processed in 0.059330 second(s), 25 queries , Gzip On, MemCached On.

    Powered by Discuz! X3.4

    © 2001-2013 Comsenz Inc.

    快速回复 返回顶部 返回列表