快捷导航
查看: 580|回复: 12

[动画] 西葫芦的生活 My.Life.as.a.Zucchini.2016.1080p.Bluray.x264.DTS-WiKi 5.49GB

[复制链接]
  • TA的每日心情
    擦汗
    3 天前
  • 签到天数: 69 天

    [LV.6]常住居民II

    1529

    主题

    1600

    帖子

    3323

    积分

    发布组

    积分
    3323
    发表于 2021-6-4 15:32:15 | 显示全部楼层 |阅读模式
    1. 帖子完整标题:西葫芦的生活 My.Life.as.a.Zucchini.2016.1080p.Bluray.x264.DTS-WiKi 5.49GB
    复制代码



    译  名 西葫芦的生活/My Life as a Courgette/My Life As A Zucchini/翠玉瓜的岁月(港)/酷瓜人生(台)
    片  名 Ma vie de courgette
    年  代 2016
    产  地 瑞士,法国
    类  别 剧情 / 动画 / 儿童
    语  言 法语
    上映日期 2016-05-15(戛纳电影节) / 2016-09-22(瑞士) / 2016-10-19(法国)
    IMDb评分  7.8/10 from 20690 users
    IMDb链接  https://www.imdb.com/title/tt2321405/
    豆瓣评分 8.4/10 from 21322 users
    豆瓣链接 https://movie.douban.com/subject/24860289/
    片  长 66分钟
    导  演 克洛德·巴拉斯 Claude Barras
    编  剧 吉勒斯·帕瑞斯 Gilles Paris / 瑟琳·席安玛 Céline Sciamma / 杰马诺·祖罗 Germano Zullo / 克洛德·巴拉斯 Claude Barras / 莫根·纳瓦罗 Morgan Navarro
    主  演 加斯帕德·施拉特 Gaspard Schlatter
           西斯汀·穆拉特 Sixtine Murat
           波林·雅库 Paulin Jaccoud
           米歇尔·维耶尔莫 Michel Vuillermoz
           劳尔·里贝拉 Raul Ribera
           埃斯特尔·亨纳德 Estelle Hennard
           埃利奥特·桑切斯 Elliot Sanchez
           卢·威克 Lou Wick
           布丽奇特·罗塞特 Brigitte Rosset
           娜塔莎·科奇库莫夫 Natacha Koutchoumov
           莫妮卡·布德 Monica Budde
           阿德里安·巴拉佐尼 Adrien Barazzone
           维诺妮可·蒙特尔 Véronique Montel
           罗马妮·科瑞特尼 Romane Cretegny
           伊芙琳·布维尔 Evelyne Bouvier
           伦纳德·杰纳 Léonard Geneux
           安妮-劳雷·布雷西 Anne-Laure Brasey
           让-克劳德·伊森曼 Jean-Claude Issenmann
           伊安尼斯·雅库 Iannis Jaccoud
           埃里克·阿巴特 Erick Abbate
           威尔·福特 Will Forte
           尼克·奥弗曼 Nick Offerman
           艾伦·佩吉 Ellen Page
           玢·罗宾斯 Finn Robbins
           艾米·塞德丽丝 Amy Sedaris
           克拉拉·杨 Clara Young

    标  签 动画 | 法国 | 儿童 | 温情 | 粘土 | 成长 | 瑞士 | 定格

    简  介

      男孩西葫芦(加斯帕德·施拉特 Gaspard Schlatter 配音)自幼被父亲抛弃,同母亲一起过着相依为命的生活。不幸的婚姻让母亲依赖酒精度日,常常苛责殴打西葫芦,可即便如此,在西葫芦的内心里,母亲依然是他最信赖的人。一场意外中,母亲从楼梯上跌落不幸死去,西葫芦成为了孤儿,亦背负上了杀死母亲的“罪名”,无处可去的他被送入了教养所。
      
      在那里,西葫芦结识了西蒙(波林·雅库 Paulin Jaccoud 配音)、爱丽丝(埃斯特尔·亨纳德 Estelle Hennard 配音)等孩子,他们虽然性格迥异,但都有着同样悲惨的遭遇。某日,教养所里新来了一个名为卡米尔(西斯汀·穆拉特 Sixtine Murat 配音)的女孩,她的出现瞬间吸引了西葫芦的目光。

    获奖情况

      第89届奥斯卡金像奖 ?(2017)
      最佳动画长片(提名) 克洛德·巴拉斯?/?马克斯·卡利
      
      第69届戛纳电影节 ?(2016)
      导演双周单元(提名) 克洛德·巴拉斯
      
      第74届金球奖 ?(2017)
      电影类最佳动画长片(提名)
      
      第71届英国电影学院奖 ?(2018)
      电影奖最佳动画片(提名)
      
      第29届欧洲电影奖 ?(2016)
      最佳动画片
      
      第42届法国凯撒电影奖 ?(2017)
      最佳改编剧本 瑟琳·席安玛
      最佳动画片
      最佳原创音乐(提名)
      
      第44届动画安妮奖 ?(2017)
      最佳独立动画长片(提名)
      最佳导演(提名) 克洛德·巴拉斯
      最佳编剧(提名) 瑟琳·席安玛
      
      第26届安锡国际动画节 ?(2016)
      长篇动画单元长片水晶奖 克洛德·巴拉斯
      长篇动画单元观众票选奖 克洛德·巴拉斯
      
      第21届金卫星奖 ?(2017)
      电影部门最佳动画片
      
      第4届豆瓣电影年度榜单 ?(2017)
      评分最高的动画片(提名)
    1. Video
    2. ID                                       : 1
    3. Format                                   : AVC
    4. Format/Info                              : Advanced Video Codec
    5. Format profile                           : High@L4
    6. Format settings, CABAC                   : Yes
    7. Format settings, ReFrames                : 4 frames
    8. Codec ID                                 : V_MPEG4/ISO/AVC
    9. Duration                                 : 1h 5mn
    10. Bit rate                                 : 9 800 Kbps
    11. Width                                    : 1 920 pixels
    12. Height                                   : 1 080 pixels
    13. Display aspect ratio                     : 16:9
    14. Frame rate mode                          : Constant
    15. Frame rate                               : 23.976 (24000/1001) fps
    16. Color space                              : YUV
    17. Chroma subsampling                       : 4:2:0
    18. Bit depth                                : 8 bits
    19. Scan type                                : Progressive
    20. Bits/(Pixel*Frame)                       : 0.197
    21. Stream size                              : 4.50 GiB (82%)
    22. Writing library                          : x264 core 129 r2245+704+36 8e61944 tMod+MixAQ [High@L4:2:0 X86_64]
    23. Encoding settings                        : cabac=1 / ref=4 / deblock=1:-1:-1 / analyse=0x3:0x133 / me=umh / subme=8 / psy=1 / fade_compensate=0.00 / psy_rd=0.60:0.00 / mixed_ref=1 / me_range=32 / chroma_me=1 / trellis=1 / 8x8dct=1 / cqm=0 / deadzone=21,11 / fast_pskip=0 / chroma_qp_offset=-2 / threads=16 / lookahead_threads=2 / sliced_threads=0 / nr=0 / decimate=1 / interlaced=0 / bluray_compat=0 / constrained_intra=0 / fgo=0 / bframes=12 / b_pyramid=2 / b_adapt=2 / b_bias=0 / direct=3 / weightb=1 / open_gop=0 / weightp=2 / keyint=250 / keyint_min=23 / scenecut=40 / intra_refresh=0 / rc_lookahead=120 / rc=2pass / mbtree=0 / bitrate=9800 / ratetol=1.0 / qcomp=0.75 / qpmin=0 / qpmax=69 / qpstep=4 / cplxblur=20.0 / qblur=0.5 / vbv_maxrate=38000 / vbv_bufsize=30000 / nal_hrd=none / ip_ratio=1.40 / pb_ratio=1.30 / aq=1 / aq-strength=0.90 / aq-sensitivity=10.00 / aq-ifactor=1.00 / aq-pfactor=1.00 / aq-bfactor=1.00 / aq2=0
    24. Language                                 : French
    25. Default                                  : Yes
    26. Forced                                   : No

    27. Audio #1
    28. ID                                       : 2
    29. Format                                   : DTS
    30. Format/Info                              : Digital Theater Systems
    31. Mode                                     : 16
    32. Format settings, Endianness              : Big
    33. Codec ID                                 : A_DTS
    34. Duration                                 : 1h 5mn
    35. Bit rate mode                            : Constant
    36. Bit rate                                 : 1 509 Kbps
    37. Channel(s)                               : 6 channels
    38. Channel positions                        : Front: L C R, Side: L R, LFE
    39. Sampling rate                            : 48.0 KHz
    40. Frame rate                               : 93.750 fps (512 spf)
    41. Bit depth                                : 16 bits
    42. Compression mode                         : Lossy
    43. Stream size                              : 710 MiB (13%)
    44. Language                                 : French
    45. Default                                  : No
    46. Forced                                   : No

    47. Audio #2
    48. ID                                       : 3
    49. Format                                   : AC-3
    50. Format/Info                              : Audio Coding 3
    51. Mode extension                           : CM (complete main)
    52. Format settings, Endianness              : Big
    53. Codec ID                                 : A_AC3
    54. Duration                                 : 1h 6mn
    55. Bit rate mode                            : Constant
    56. Bit rate                                 : 640 Kbps
    57. Channel(s)                               : 6 channels
    58. Channel positions                        : Front: L C R, Side: L R, LFE
    59. Sampling rate                            : 48.0 KHz
    60. Frame rate                               : 31.250 fps (1536 spf)
    61. Compression mode                         : Lossy
    62. Stream size                              : 303 MiB (5%)
    63. Language                                 : Chinese
    64. Default                                  : Yes
    65. Forced                                   : No

    66. Menu
    67. 00:00:00.000                             : en:00:00:00.000
    68. 00:05:51.351                             : en:00:05:51.351
    69. 00:10:59.659                             : en:00:10:59.659
    70. 00:15:27.927                             : en:00:15:27.927
    71. 00:21:54.313                             : en:00:21:54.313
    72. 00:28:12.691                             : en:00:28:12.691
    73. 00:32:16.935                             : en:00:32:16.935
    74. 00:38:43.321                             : en:00:38:43.321
    75. 00:44:34.672                             : en:00:44:34.672
    76. 00:49:52.990                             : en:00:49:52.990
    77. 00:55:34.331                             : en:00:55:34.331
    78. 00:59:57.594                             : en:00:59:57.594
    复制代码







    本帖隐藏的内容需要VIP会员才可浏览,您需要升级才可浏览,点击这里升级VIP





    西葫芦的生活 My.Life.as.a.Zucchini.2016.1080p.Bluray.x264.DTS-WiKi 5.49GB-1.png
    西葫芦的生活 My.Life.as.a.Zucchini.2016.1080p.Bluray.x264.DTS-WiKi 5.49GB-2.png
    西葫芦的生活 My.Life.as.a.Zucchini.2016.1080p.Bluray.x264.DTS-WiKi 5.49GB-3.png
    西葫芦的生活 My.Life.as.a.Zucchini.2016.1080p.Bluray.x264.DTS-WiKi 5.49GB-4.png
    西葫芦的生活 My.Life.as.a.Zucchini.2016.1080p.Bluray.x264.DTS-WiKi 5.49GB-5.png
    回复

    使用道具 举报

    该用户从未签到

    0

    主题

    777

    帖子

    465

    积分

    中级会员

    Rank: 3Rank: 3

    积分
    465
    发表于 2021-6-4 16:26:28 | 显示全部楼层
    回复 支持 反对

    使用道具 举报

    该用户从未签到

    0

    主题

    1万

    帖子

    1万

    积分

    论坛元老

    Rank: 8Rank: 8

    积分
    16777
    发表于 2021-6-4 22:15:35 | 显示全部楼层
    感谢楼主的无私分享!要想蓝光高清电影网好 就靠你我他
    回复 支持 反对

    使用道具 举报

    该用户从未签到

    0

    主题

    2万

    帖子

    2万

    积分

    论坛元老

    Rank: 8Rank: 8

    积分
    25556
    发表于 2021-6-6 11:12:33 | 显示全部楼层
    楼主太厉害了!楼主,电影应该很好看我觉得蓝光电影下载真是个好地方!
    回复 支持 反对

    使用道具 举报

    该用户从未签到

    0

    主题

    4202

    帖子

    3563

    积分

    论坛元老

    Rank: 8Rank: 8

    积分
    3563
    发表于 2021-6-6 19:22:49 | 显示全部楼层
    回复 支持 反对

    使用道具 举报

    该用户从未签到

    0

    主题

    2万

    帖子

    2万

    积分

    论坛元老

    Rank: 8Rank: 8

    积分
    25556
    发表于 2021-6-7 09:28:34 | 显示全部楼层

    非常精彩的电影,下来收藏,感谢楼主
    回复 支持 反对

    使用道具 举报

    该用户从未签到

    0

    主题

    4202

    帖子

    3563

    积分

    论坛元老

    Rank: 8Rank: 8

    积分
    3563
    发表于 2021-6-8 02:47:04 | 显示全部楼层

    是个好电影!必须要看的!多谢分享!
    回复 支持 反对

    使用道具 举报

    该用户从未签到

    0

    主题

    1万

    帖子

    1万

    积分

    论坛元老

    Rank: 8Rank: 8

    积分
    15691
    发表于 2021-6-11 02:25:45 | 显示全部楼层
    回复 支持 反对

    使用道具 举报

    该用户从未签到

    0

    主题

    935

    帖子

    610

    积分

    高级会员

    Rank: 4

    积分
    610
    发表于 2021-6-11 05:26:51 | 显示全部楼层
    回复 支持 反对

    使用道具 举报

    该用户从未签到

    0

    主题

    1万

    帖子

    1万

    积分

    论坛元老

    Rank: 8Rank: 8

    积分
    16777
    发表于 2021-6-12 03:37:01 | 显示全部楼层
    回复 支持 反对

    使用道具 举报

    懒得打字嘛,点击右侧快捷回复 【右侧内容,后台自定义】
    您需要登录后才可以回帖 登录 | 立即注册

    本版积分规则

    郑重声明,本站所有作品片源来自互联网公开渠道,均为网友上传交流学习,影视版权均归原电影公司所有,如有侵犯版权,请与 2322694662@qq.com 联系,我们将立即删除。

    小黑屋|手机版|Archiver|百度统计|投诉|蓝光电影下载

    GMT+8, 2021-6-22 16:21 , Processed in 0.029569 second(s), 24 queries , Gzip On, MemCached On.

    Powered by Discuz! X3.4

    © 2001-2013 Comsenz Inc.

    快速回复 返回顶部 返回列表