快捷导航
查看: 607|回复: 12

[悬疑] 深红累之渊 Kasane.2018.JAPANESE.1080p.BluRay.x264.DTS-WiKi 9.74GB

[复制链接]
  • TA的每日心情
    擦汗
    3 天前
  • 签到天数: 69 天

    [LV.6]常住居民II

    1529

    主题

    1600

    帖子

    3323

    积分

    发布组

    积分
    3323
    发表于 2021-6-8 17:59:49 | 显示全部楼层 |阅读模式
    1. 帖子完整标题:深红累之渊 Kasane.2018.JAPANESE.1080p.BluRay.x264.DTS-WiKi 9.74GB
    复制代码
    深红累之渊 Kasane.2018.JAPANESE.1080p.BluRay.x264.DTS-WiKi 9.74GB-1.png


    译  名 深红累之渊
    片  名 累-かさね-
    年  代 2018
    产  地 日本
    类  别 悬疑
    语  言 日语
    上映日期 2018-09-07(日本)
    IMDb评分  6/10 from 270 users
    IMDb链接  https://www.imdb.com/title/tt7058612/
    豆瓣评分 7.4/10 from 13047 users
    豆瓣链接 https://movie.douban.com/subject/27075198/
    片  长 112分钟
    导  演 佐藤祐市 Y?ichi Sat?
    编  剧 松浦达磨 Daruma Matsuura / 黑岩勉 Tsutomu Kuroiwa
    主  演 土屋太凤 Tao Tsuchiya
           芳根京子 Ky?ko Yoshine
           横山裕 Y? Yokoyama
           筒井真理子 Mariko Tsutsui
           生田智子 Tomoko Ikuta
           村井国夫 Kunio Murai
           檀丽 Rei Dan
           浅野忠信 Tadanobu Asano
           井上雄太 Yuta Inoue

    标  签 日本 | 悬疑 | 漫画改编 | 人性 | 剧情 | 2018 | 奇幻 | 漫画小说真人版

    简  介

      著名话剧演员渊透世(檀丽 饰)去世前,将一支口红交到女儿小累的手中。这支口红是她和女儿一生幸福与痛苦的源头。长大以后,脸上留着恐怖疤痕的渊累(芳根京子 饰)见到了曾为母亲担任经纪人的羽生田(浅野忠信 饰)。羽生田带着唯唯诺诺的女孩来到剧场,观看了美丽的女孩丹泽妮娜(土屋太凤 饰)的表演。高傲的妮娜怎么也想不到,丑陋的累竟然可以用那支口红和她交换容颜。原来妮娜身体不佳,且演技进入瓶颈,所以羽生田提出让有着蓬勃表演欲望的小累担任妮娜的替身。在此之后,顶着美丽容颜的小累在舞台上飞速成长,而妮娜隐隐感觉到自己有将被取代的危险……
      
      本片根据漫画《累》改编。

    获奖情况

      第42届日本电影学院奖 ?(2019)
      最佳新人 芳根京子
      
      第6届豆瓣电影年度榜单 ?(2019)
      评分最高的日本电影(提名)
    1. Video
    2. ID                                       : 1
    3. Format                                   : AVC
    4. Format/Info                              : Advanced Video Codec
    5. Format profile                           : High@L4
    6. Format settings                          : CABAC / 5 Ref Frames
    7. Format settings, CABAC                   : Yes
    8. Format settings, ReFrames                : 5 frames
    9. Codec ID                                 : V_MPEG4/ISO/AVC
    10. Duration                                 : 1 h 51 min
    11. Bit rate                                 : 11.8 Mb/s
    12. Width                                    : 1 920 pixels
    13. Height                                   : 804 pixels
    14. Display aspect ratio                     : 2.40:1
    15. Frame rate mode                          : Constant
    16. Frame rate                               : 23.976 (24000/1001/189150) FPS
    17. Color space                              : YUV
    18. Chroma subsampling                       : 4:2:0
    19. Bit depth                                : 8 bits
    20. Scan type                                : Progressive
    21. Bits/(Pixel*Frame)                       : 0.318
    22. Stream size                              : 9.14 GiB (94%)
    23. Writing library                          : x264 core 129 r2245+704+36 8e61944 tMod+MixAQ [High@L4:2:0 X86_64]
    24. Encoding settings                        : cabac=1 / ref=5 / deblock=1:-3:-3 / analyse=0x3:0x133 / me=umh / subme=11 / psy=1 / fade_compensate=0.00 / psy_rd=1.05:0.10 / mixed_ref=1 / me_range=64 / chroma_me=1 / trellis=2 / 8x8dct=1 / cqm=0 / deadzone=21,11 / fast_pskip=0 / chroma_qp_offset=-3 / threads=18 / lookahead_threads=3 / sliced_threads=0 / nr=0 / decimate=0 / interlaced=0 / bluray_compat=0 / constrained_intra=0 / fgo=0 / bframes=10 / b_pyramid=2 / b_adapt=2 / b_bias=0 / direct=3 / weightb=1 / open_gop=0 / weightp=2 / keyint=250 / keyint_min=23 / scenecut=40 / intra_refresh=0 / rc=2pass / mbtree=0 / bitrate=11776 / ratetol=1.0 / qcomp=0.70 / qpmin=0 / qpmax=69 / qpstep=4 / cplxblur=20.0 / qblur=0.5 / ip_ratio=1.40 / pb_ratio=1.30 / aq=1 / aq-strength=0.90 / aq-sensitivity=10.00 / aq-ifactor=1.00 / aq-pfactor=1.00 / aq-bfactor=1.00 / aq2=0
    25. Language                                 : Japanese
    26. Default                                  : Yes
    27. Forced                                   : No

    28. Audio
    29. ID                                       : 2
    30. Format                                   : DTS
    31. Format/Info                              : Digital Theater Systems
    32. Codec ID                                 : A_DTS
    33. Duration                                 : 1 h 51 min
    34. Bit rate mode                            : Constant
    35. Bit rate                                 : 768 kb/s
    36. Channel(s)                               : 6 channels
    37. Channel layout                           : C L R Ls Rs LFE
    38. Sampling rate                            : 48.0 kHz
    39. Frame rate                               : 93.750 FPS (512 SPF)
    40. Bit depth                                : 24 bits
    41. Compression mode                         : Lossy
    42. Stream size                              : 611 MiB (6%)
    43. Language                                 : Japanese
    44. Default                                  : Yes
    45. Forced                                   : No

    46. Text
    47. ID                                       : 3
    48. Format                                   : ASS
    49. Codec ID                                 : S_TEXT/ASS
    50. Codec ID/Info                            : Advanced Sub Station Alpha
    51. Duration                                 : 1 h 46 min
    52. Bit rate                                 : 86 b/s
    53. Count of elements                        : 1351
    54. Compression mode                         : Lossless
    55. Stream size                              : 67.6 KiB (0%)
    56. Language                                 : Chinese
    57. Default                                  : Yes
    58. Forced                                   : No

    59. Menu
    60. 00:00:00.000                             : en:第 01 章
    61. 00:03:30.752                             : en:第 02 章
    62. 00:12:43.929                             : en:第 03 章
    63. 00:16:05.381                             : en:第 04 章
    64. 00:23:50.178                             : en:第 05 章
    65. 00:33:49.902                             : en:第 06 章
    66. 00:42:54.947                             : en:第 07 章
    67. 00:48:29.740                             : en:第 08 章
    68. 00:55:25.280                             : en:第 09 章
    69. 01:00:40.970                             : en:第 10 章
    70. 01:09:01.929                             : en:第 11 章
    71. 01:12:30.054                             : en:第 12 章
    72. 01:24:40.492                             : en:第 13 章
    73. 01:35:39.483                             : en:第 14 章
    74. 01:40:26.854                             : en:第 15 章
    复制代码

    深红累之渊 Kasane.2018.JAPANESE.1080p.BluRay.x264.DTS-WiKi 9.74GB-2.png
    深红累之渊 Kasane.2018.JAPANESE.1080p.BluRay.x264.DTS-WiKi 9.74GB-3.png
    本帖隐藏的内容需要VIP会员才可浏览,您需要升级才可浏览,点击这里升级VIP





    回复

    使用道具 举报

    该用户从未签到

    0

    主题

    2万

    帖子

    2万

    积分

    论坛元老

    Rank: 8Rank: 8

    积分
    25556
    发表于 2021-6-8 18:00:43 | 显示全部楼层
    这个帖子不回对不起自己!我想我是一天也不能离开蓝光电影网
    回复 支持 反对

    使用道具 举报

    该用户从未签到

    0

    主题

    970

    帖子

    626

    积分

    高级会员

    Rank: 4

    积分
    626
    发表于 2021-6-8 18:05:50 | 显示全部楼层
    回复 支持 反对

    使用道具 举报

    该用户从未签到

    0

    主题

    4013

    帖子

    3396

    积分

    论坛元老

    Rank: 8Rank: 8

    积分
    3396
    发表于 2021-6-8 18:16:22 | 显示全部楼层
    感谢楼主的无私分享!要想蓝光高清电影网好 就靠你我他
    回复 支持 反对

    使用道具 举报

    该用户从未签到

    0

    主题

    1844

    帖子

    1590

    积分

    金牌会员

    Rank: 6Rank: 6

    积分
    1590
    发表于 2021-6-9 12:35:50 | 显示全部楼层
    回复 支持 反对

    使用道具 举报

    该用户从未签到

    0

    主题

    1万

    帖子

    1万

    积分

    论坛元老

    Rank: 8Rank: 8

    积分
    15691
    发表于 2021-6-11 00:53:48 | 显示全部楼层

    是个好电影!必须要看的!多谢分享!
    回复 支持 反对

    使用道具 举报

    该用户从未签到

    0

    主题

    585

    帖子

    10

    积分

    新手上路

    Rank: 1

    积分
    10
    发表于 2021-6-11 04:29:46 | 显示全部楼层
    回复 支持 反对

    使用道具 举报

    该用户从未签到

    0

    主题

    2万

    帖子

    2万

    积分

    论坛元老

    Rank: 8Rank: 8

    积分
    25556
    发表于 2021-6-11 05:05:54 | 显示全部楼层
    回复 支持 反对

    使用道具 举报

    该用户从未签到

    0

    主题

    3845

    帖子

    2334

    积分

    金牌会员

    Rank: 6Rank: 6

    积分
    2334
    发表于 2021-6-12 10:07:06 | 显示全部楼层
    回复 支持 反对

    使用道具 举报

    该用户从未签到

    0

    主题

    4794

    帖子

    2186

    积分

    金牌会员

    Rank: 6Rank: 6

    积分
    2186
    发表于 2021-6-12 21:44:37 | 显示全部楼层
    回复 支持 反对

    使用道具 举报

    懒得打字嘛,点击右侧快捷回复 【右侧内容,后台自定义】
    您需要登录后才可以回帖 登录 | 立即注册

    本版积分规则

    郑重声明,本站所有作品片源来自互联网公开渠道,均为网友上传交流学习,影视版权均归原电影公司所有,如有侵犯版权,请与 2322694662@qq.com 联系,我们将立即删除。

    小黑屋|手机版|Archiver|百度统计|投诉|蓝光电影下载

    GMT+8, 2021-6-22 15:00 , Processed in 0.025909 second(s), 23 queries , Gzip On, MemCached On.

    Powered by Discuz! X3.4

    © 2001-2013 Comsenz Inc.

    快速回复 返回顶部 返回列表