快捷导航
查看: 463|回复: 18

[喜剧] 快乐飞行 Happy.Flight.2008.JAPANESE.1080p.BluRay.x264-WiKi 9.75GB

[复制链接]
  • TA的每日心情
    擦汗
    3 天前
  • 签到天数: 69 天

    [LV.6]常住居民II

    1529

    主题

    1600

    帖子

    3323

    积分

    发布组

    积分
    3323
    发表于 2021-6-9 22:52:46 | 显示全部楼层 |阅读模式
    1. 帖子完整标题:快乐飞行 Happy.Flight.2008.JAPANESE.1080p.BluRay.x264-WiKi 9.75GB
    复制代码



    译  名 快乐飞行/Happy Flight/开心直航(港)/愉快的飞行/梦想起飞/梦想起飞:菜鸟空姐的处女航(台)
    片  名 ハッピーフライト
    年  代 2008
    产  地 日本
    类  别 剧情 / 喜剧
    语  言 日语
    上映日期 2008-11-15(日本)
    IMDb评分  6.5/10 from 553 users
    IMDb链接  https://www.imdb.com/title/tt1156447/
    豆瓣评分 7.2/10 from 2306 users
    豆瓣链接 https://movie.douban.com/subject/3073912/
    片  长 103分钟
    导  演 矢口史靖 Shinobu Yaguchi
    编  剧 矢口史靖 Shinobu Yaguchi
    主  演 田边诚一 Seiichi Tanabe
           时任三郎 Saburo Tokito
           绫濑遥 Haruka Ayase
           吹石一惠 Kazue Fukiishi
           田畑智子 Tomoko Tabata
           寺岛忍 Shinobu Terajima
           岸部一德 Ittoku Kishibe
           笹野高史 Takashi Sasano
           菅原大吉 Daikichi Sugawara
           田中哲司 Tetsushi Tanaka
           柳原晴郎 Bengaru
           田山凉成 Ry?sei Tayama
           正名仆蔵 Bokuz? Masana
           藤本静 Shizuka Fujimoto
           平岩纸 Kami Hiraiwa
           中村靖日 Yasuhi Nakamura
           肘井美佳 Mika Hijii
           森冈龙 Ry? Morioka
           长谷川朝晴 Tomoharu Hasegawa
           伊藤爱子 Aiko Ito
           森下能幸 Yoshiyuki Morishita
           江口德子 Noriko Eguchi
           宫田早苗 Sanae Miyata
           小日向文世 Fumiyo Kohinata
           竹中直人 Naoto Takenaka
           木野花 Hana Kino
           柄本明 Akira Emoto
           佐藤惠 Megumi Sat?
           入山法子 Noriko Iriyama
           高松郁 Iku Takamatsu

    标  签 日本 | 喜剧 | 2008 | 航空 | 剧情 | 飞行 | 民航 | 温情

    简  介

      故事发生在一座机场之中,飞往夏威夷的航班即将起飞。副驾驶员铃木和博(田边诚一 饰)的内心里充满了忐忑,因为这次飞行是他的最后一次升职培训试飞,如果各项指标合格,他很快就能够升职成为机长了。可是,监督他飞行的教官不是别人,竟是那个以严格著称的原田典嘉(时任三郎 饰),一想到这一点,铃木就在心里为自己暗暗捏了一把冷汗。
      
      同样不安的还有新人空姐齐藤悦子(绫濑遥 饰),她所要面对的,是同事们望而生畏的乘务长山崎丽子(寺岛忍 饰),各种各样有关于她的传说轮番在悦子的脑海里上演,还未挨骂,悦子就已经感到泪水在眼眶里转动了。不幸的事情还是发生了,问题接踵而至,先是负责售票的木村菜系(田畑智子 饰)发现机票超售,之后,机务人员中村弘树(森冈龙 饰)在检查机体时又在更换零件上耽误的过多的时间。飞机的起飞时间眼看着就要临近,一切真的都没问题吗?
    1. Video
    2. ID                                       : 1
    3. Format                                   : AVC
    4. Format/Info                              : Advanced Video Codec
    5. Format profile                           : High@L4
    6. Format settings                          : CABAC / 4 Ref Frames
    7. Format settings, CABAC                   : Yes
    8. Format settings, ReFrames                : 4 frames
    9. Codec ID                                 : V_MPEG4/ISO/AVC
    10. Duration                                 : 1 h 43 min
    11. Bit rate                                 : 12.8 Mb/s
    12. Width                                    : 1 920 pixels
    13. Height                                   : 1 038 pixels
    14. Display aspect ratio                     : 1.85:1
    15. Frame rate mode                          : Constant
    16. Frame rate                               : 23.976 (24000/1001/189150) FPS
    17. Color space                              : YUV
    18. Chroma subsampling                       : 4:2:0
    19. Bit depth                                : 8 bits
    20. Scan type                                : Progressive
    21. Bits/(Pixel*Frame)                       : 0.268
    22. Stream size                              : 9.28 GiB (95%)
    23. Writing library                          : x264 core 129 r2245+704+36 8e61944 tMod+MixAQ [High@L4:2:0 X86_64]
    24. Encoding settings                        : cabac=1 / ref=4 / deblock=1:-1:-1 / analyse=0x3:0x133 / me=umh / subme=11 / psy=1 / fade_compensate=0.00 / psy_rd=1.05:0.10 / mixed_ref=1 / me_range=64 / chroma_me=1 / trellis=2 / 8x8dct=1 / cqm=0 / deadzone=21,11 / fast_pskip=0 / chroma_qp_offset=-3 / threads=18 / lookahead_threads=3 / sliced_threads=0 / nr=0 / decimate=0 / interlaced=0 / bluray_compat=0 / constrained_intra=0 / fgo=0 / bframes=10 / b_pyramid=2 / b_adapt=2 / b_bias=0 / direct=3 / weightb=1 / open_gop=0 / weightp=2 / keyint=250 / keyint_min=23 / scenecut=40 / intra_refresh=0 / rc=2pass / mbtree=0 / bitrate=12804 / ratetol=1.0 / qcomp=0.70 / qpmin=0 / qpmax=69 / qpstep=4 / cplxblur=20.0 / qblur=0.5 / ip_ratio=1.40 / pb_ratio=1.30 / aq=1 / aq-strength=0.90 / aq-sensitivity=10.00 / aq-ifactor=1.00 / aq-pfactor=1.00 / aq-bfactor=1.00 / aq2=0
    25. Language                                 : Japanese
    26. Default                                  : Yes
    27. Forced                                   : No

    28. Audio
    29. ID                                       : 2
    30. Format                                   : AC-3
    31. Format/Info                              : Audio Coding 3
    32. Commercial name                          : Dolby Digital
    33. Codec ID                                 : A_AC3
    34. Duration                                 : 1 h 43 min
    35. Bit rate mode                            : Constant
    36. Bit rate                                 : 640 kb/s
    37. Channel(s)                               : 6 channels
    38. Channel layout                           : L R C LFE Ls Rs
    39. Sampling rate                            : 48.0 kHz
    40. Frame rate                               : 31.250 FPS (1536 SPF)
    41. Bit depth                                : 16 bits
    42. Compression mode                         : Lossy
    43. Stream size                              : 475 MiB (5%)
    44. Language                                 : Japanese
    45. Service kind                             : Complete Main
    46. Default                                  : Yes
    47. Forced                                   : No

    48. Text #1
    49. ID                                       : 3
    50. Format                                   : UTF-8
    51. Codec ID                                 : S_TEXT/UTF8
    52. Codec ID/Info                            : UTF-8 Plain Text
    53. Duration                                 : 1 h 39 min
    54. Bit rate                                 : 41 b/s
    55. Count of elements                        : 1088
    56. Stream size                              : 30.2 KiB (0%)
    57. Language                                 : English
    58. Default                                  : Yes
    59. Forced                                   : Yes

    60. Text #2
    61. ID                                       : 4
    62. Format                                   : UTF-8
    63. Codec ID                                 : S_TEXT/UTF8
    64. Codec ID/Info                            : UTF-8 Plain Text
    65. Duration                                 : 1 h 38 min
    66. Bit rate                                 : 43 b/s
    67. Count of elements                        : 1441
    68. Stream size                              : 31.2 KiB (0%)
    69. Title                                    : Simplified
    70. Language                                 : Chinese
    71. Default                                  : No
    72. Forced                                   : No

    73. Text #3
    74. ID                                       : 5
    75. Format                                   : UTF-8
    76. Codec ID                                 : S_TEXT/UTF8
    77. Codec ID/Info                            : UTF-8 Plain Text
    78. Duration                                 : 1 h 38 min
    79. Bit rate                                 : 43 b/s
    80. Count of elements                        : 1441
    81. Stream size                              : 31.2 KiB (0%)
    82. Title                                    : Traditional
    83. Language                                 : Chinese
    84. Default                                  : No
    85. Forced                                   : No

    86. Menu
    87. 00:00:00.000                             : en:第 01 章
    88. 00:04:49.288                             : en:第 02 章
    89. 00:06:26.052                             : en:第 03 章
    90. 00:12:17.737                             : en:第 04 章
    91. 00:15:25.674                             : en:第 05 章
    92. 00:18:23.644                             : en:第 06 章
    93. 00:27:04.247                             : en:第 07 章
    94. 00:32:19.395                             : en:第 08 章
    95. 00:36:28.436                             : en:第 09 章
    96. 00:38:40.651                             : en:第 10 章
    97. 00:40:53.868                             : en:第 11 章
    98. 00:44:11.398                             : en:第 12 章
    99. 00:45:37.943                             : en:第 13 章
    100. 00:48:13.807                             : en:第 14 章
    101. 00:52:15.257                             : en:第 15 章
    102. 00:55:05.468                             : en:第 16 章
    103. 00:58:03.313                             : en:第 17 章
    104. 01:03:32.683                             : en:第 18 章
    105. 01:07:29.712                             : en:第 19 章
    106. 01:09:52.313                             : en:第 20 章
    107. 01:13:35.536                             : en:第 21 章
    108. 01:16:30.460                             : en:第 22 章
    109. 01:18:58.692                             : en:第 23 章
    110. 01:21:51.906                             : en:第 24 章
    111. 01:23:54.571                             : en:第 25 章
    112. 01:26:40.153                             : en:第 26 章
    113. 01:30:01.437                             : en:第 27 章
    114. 01:32:55.486                             : en:第 28 章
    115. 01:35:56.333                             : en:第 29 章
    116. 01:39:41.058                             : en:第 30 章
    117. 01:43:49.223                             : en:第 31 章
    复制代码



    本帖隐藏的内容需要VIP会员才可浏览,您需要升级才可浏览,点击这里升级VIP





    快乐飞行 Happy.Flight.2008.JAPANESE.1080p.BluRay.x264-WiKi 9.75GB-1.png
    快乐飞行 Happy.Flight.2008.JAPANESE.1080p.BluRay.x264-WiKi 9.75GB-2.png
    回复

    使用道具 举报

    该用户从未签到

    0

    主题

    1万

    帖子

    1万

    积分

    论坛元老

    Rank: 8Rank: 8

    积分
    15691
    发表于 2021-6-10 00:15:49 | 显示全部楼层
    回复 支持 反对

    使用道具 举报

    该用户从未签到

    0

    主题

    1万

    帖子

    1万

    积分

    论坛元老

    Rank: 8Rank: 8

    积分
    16777
    发表于 2021-6-10 01:03:50 | 显示全部楼层
    楼主太厉害了!楼主,电影应该很好看我觉得蓝光电影下载真是个好地方!
    回复 支持 反对

    使用道具 举报

  • TA的每日心情
    开心
    14 小时前
  • 签到天数: 122 天

    [LV.7]常住居民III

    1

    主题

    421

    帖子

    1448

    积分

    金牌会员

    Rank: 6Rank: 6

    积分
    1448
    发表于 2021-6-10 01:04:01 | 显示全部楼层
    回复 支持 反对

    使用道具 举报

    该用户从未签到

    0

    主题

    4794

    帖子

    2186

    积分

    金牌会员

    Rank: 6Rank: 6

    积分
    2186
    发表于 2021-6-10 01:04:01 | 显示全部楼层
    回复 支持 反对

    使用道具 举报

    该用户从未签到

    0

    主题

    1万

    帖子

    1万

    积分

    论坛元老

    Rank: 8Rank: 8

    积分
    15691
    发表于 2021-6-10 01:04:01 | 显示全部楼层

    是个好电影!必须要看的!多谢分享!
    回复 支持 反对

    使用道具 举报

    该用户从未签到

    0

    主题

    1291

    帖子

    1151

    积分

    金牌会员

    Rank: 6Rank: 6

    积分
    1151
    发表于 2021-6-10 03:47:14 | 显示全部楼层
    这个帖子不回对不起自己!我想我是一天也不能离开蓝光电影网
    回复 支持 反对

    使用道具 举报

    该用户从未签到

    0

    主题

    3119

    帖子

    2405

    积分

    金牌会员

    Rank: 6Rank: 6

    积分
    2405
    发表于 2021-6-10 08:16:07 | 显示全部楼层
    回复 支持 反对

    使用道具 举报

    该用户从未签到

    0

    主题

    3119

    帖子

    2405

    积分

    金牌会员

    Rank: 6Rank: 6

    积分
    2405
    发表于 2021-6-10 10:25:03 | 显示全部楼层
    回复 支持 反对

    使用道具 举报

    该用户从未签到

    0

    主题

    1万

    帖子

    1万

    积分

    论坛元老

    Rank: 8Rank: 8

    积分
    16777
    发表于 2021-6-10 16:59:58 | 显示全部楼层
    回复 支持 反对

    使用道具 举报

    懒得打字嘛,点击右侧快捷回复 【右侧内容,后台自定义】
    您需要登录后才可以回帖 登录 | 立即注册

    本版积分规则

    郑重声明,本站所有作品片源来自互联网公开渠道,均为网友上传交流学习,影视版权均归原电影公司所有,如有侵犯版权,请与 2322694662@qq.com 联系,我们将立即删除。

    小黑屋|手机版|Archiver|百度统计|投诉|蓝光电影下载

    GMT+8, 2021-6-22 15:18 , Processed in 0.058025 second(s), 27 queries , Gzip On, MemCached On.

    Powered by Discuz! X3.4

    © 2001-2013 Comsenz Inc.

    快速回复 返回顶部 返回列表