快捷导航
查看: 2489|回复: 39

[剧情] 即将18 Almost.18.2012.1080p.BluRay.x264-MCHD 8.75GB

[复制链接]
  • TA的每日心情
    奋斗
    2022-4-10 22:41
  • 签到天数: 126 天

    [LV.7]常住居民III

    2480

    主题

    2606

    帖子

    5518

    积分

    发布组

    积分
    5518
    发表于 2021-7-13 22:27:25 | 显示全部楼层 |阅读模式
    1. 帖子完整标题:即将18 Almost.18.2012.1080p.BluRay.x264-MCHD 8.75GB
    复制代码



    译  名 即将18/Almost 18
    片  名 Kohta 18
    年  代 2012
    产  地 芬兰
    类  别 剧情
    语  言 芬兰语 Finnish
    上映日期 2012-03-09
    IMDb评分  6.2/10 from 572 users
    IMDb链接  https://www.imdb.com/title/tt2131541/
    豆瓣评分 7.0/10 from 37 users
    豆瓣链接 https://movie.douban.com/subject/10797044/
    片  长 110分钟
    主  演 艾丽娜·克尼赫蒂莱 Elina Knihtil?

    标  签 芬兰 | 青春 | 北欧 | 2010s | 成长 | 家庭 | 纪录片 | 欧洲

    简  介

      ”Kohta 18” (Almost 18), director and writer Maarit Lalli’s first feature film, has received positive responses from critics and audiences. The film tells five boys’ distinct yet interconnected stories. The common denominator for the stories is not only the boys’ friendship, but the struggles they face with their parents and themselves, while they are pursuing independence. In essence the movie is about youth as well as friend and family relationships.
      
      The film manages to depict the lives of these five boys in Helsinki from a fresh perspective – the main characters are not troubled or extraordinary youths, but instead quite normal young men with everyday problems. The actors (even though they are amateurs) convince in their roles making their characters easily relatable, eliciting empathy from viewers.
      
      《即将18 》是本片导演及编剧Maarit Lalli的首部故事片。迄今为止该片已经得到了电影评论家与观众的不少好评。该片讲述了五个男孩独特的却又互相关联的故事。将这些故事融合到电影中的是他们在追求独立时彼此间的兄弟情以及面对父母与自我时的奋斗挣扎。从本质上来说,这是一部关于青春、友情与亲情的电影。
      
      该片成功地以全新的角度描绘了五位赫尔辛基男孩的生活:故事的主人公不是那些到处制造麻烦或者天赋异禀的年轻人,而是那些普通青年,他们遇到的是生活中常有的破事儿。通过演员们(虽然他们不是专业演员)的演绎,观众很容易产生共鸣,并能感同身受。
    1. Video
    2. ID                                       : 1
    3. Format                                   : AVC
    4. Format/Info                              : Advanced Video Codec
    5. Format profile                           : High@L4
    6. Format settings                          : CABAC / 4 Ref Frames
    7. Format settings, CABAC                   : Yes
    8. Format settings, Reference frames        : 4 frames
    9. Codec ID                                 : V_MPEG4/ISO/AVC
    10. Duration                                 : 1 h 51 min
    11. Bit rate                                 : 10.8 Mb/s
    12. Width                                    : 1 920 pixels
    13. Height                                   : 1 080 pixels
    14. Display aspect ratio                     : 16:9
    15. Frame rate mode                          : Constant
    16. Frame rate                               : 23.976 (24000/1001/189150) FPS
    17. Color space                              : YUV
    18. Chroma subsampling                       : 4:2:0
    19. Bit depth                                : 8 bits
    20. Scan type                                : Progressive
    21. Bits/(Pixel*Frame)                       : 0.216
    22. Stream size                              : 8.22 GiB (94%)
    23. Writing library                          : x264 core 125 r2208 d9d2288
    24. Encoding settings                        : cabac=1 / ref=4 / deblock=1:0:0 / analyse=0x3:0x133 / me=umh / subme=7 / psy=1 / psy_rd=1.00:0.00 / mixed_ref=1 / me_range=16 / chroma_me=1 / trellis=1 / 8x8dct=1 / cqm=0 / deadzone=21,11 / fast_pskip=0 / chroma_qp_offset=-2 / threads=6 / lookahead_threads=1 / sliced_threads=0 / nr=0 / decimate=1 / interlaced=0 / bluray_compat=0 / constrained_intra=0 / bframes=3 / b_pyramid=2 / b_adapt=2 / b_bias=0 / direct=3 / weightb=1 / open_gop=0 / weightp=2 / keyint=250 / keyint_min=23 / scenecut=40 / intra_refresh=0 / rc_lookahead=50 / rc=2pass / mbtree=1 / bitrate=10760 / ratetol=1.0 / qcomp=0.60 / qpmin=0 / qpmax=69 / qpstep=4 / cplxblur=20.0 / qblur=0.5 / ip_ratio=1.40 / aq=1:1.00
    25. Language                                 : English
    26. Default                                  : No
    27. Forced                                   : No

    28. Audio
    29. ID                                       : 2
    30. Format                                   : AC-3
    31. Format/Info                              : Audio Coding 3
    32. Commercial name                          : Dolby Digital
    33. Codec ID                                 : A_AC3
    34. Duration                                 : 1 h 51 min
    35. Bit rate mode                            : Constant
    36. Bit rate                                 : 448 kb/s
    37. Channel(s)                               : 6 channels
    38. Channel layout                           : L R C LFE Ls Rs
    39. Sampling rate                            : 48.0 kHz
    40. Frame rate                               : 31.250 FPS (1536 SPF)
    41. Compression mode                         : Lossy
    42. Stream size                              : 358 MiB (4%)
    43. Language                                 : Finnish
    44. Service kind                             : Complete Main
    45. Default                                  : Yes
    46. Forced                                   : No

    47. Text #1
    48. ID                                       : 3
    49. Format                                   : UTF-8
    50. Codec ID                                 : S_TEXT/UTF8
    51. Codec ID/Info                            : UTF-8 Plain Text
    52. Language                                 : English
    53. Default                                  : Yes
    54. Forced                                   : No

    55. Text #2
    56. ID                                       : 4
    57. Format                                   : UTF-8
    58. Codec ID                                 : S_TEXT/UTF8
    59. Codec ID/Info                            : UTF-8 Plain Text
    60. Language                                 : Finnish
    61. Default                                  : No
    62. Forced                                   : No

    63. Text #3
    64. ID                                       : 5
    65. Format                                   : UTF-8
    66. Codec ID                                 : S_TEXT/UTF8
    67. Codec ID/Info                            : UTF-8 Plain Text
    68. Language                                 : Swedish
    69. Default                                  : No
    70. Forced                                   : No
    复制代码




    游客,如果您要查看本帖隐藏内容请回复





    即将18 Almost.18.2012.1080p.BluRay.x264-MCHD 8.75GB-1.png
    即将18 Almost.18.2012.1080p.BluRay.x264-MCHD 8.75GB-2.png
    即将18 Almost.18.2012.1080p.BluRay.x264-MCHD 8.75GB-3.png
    回复

    使用道具 举报

    该用户从未签到

    0

    主题

    3855

    帖子

    3485

    积分

    论坛元老

    Rank: 8Rank: 8

    积分
    3485
    发表于 2021-7-14 03:35:45 | 显示全部楼层

    非常精彩的电影,下来收藏,感谢楼主
    回复 支持 反对

    使用道具 举报

    该用户从未签到

    0

    主题

    1388

    帖子

    1301

    积分

    金牌会员

    Rank: 6Rank: 6

    积分
    1301
    发表于 2021-7-14 18:50:35 | 显示全部楼层
    回复 支持 反对

    使用道具 举报

    该用户从未签到

    0

    主题

    611

    帖子

    499

    积分

    中级会员

    Rank: 3Rank: 3

    积分
    499
    发表于 2021-7-15 07:16:44 | 显示全部楼层
    回复 支持 反对

    使用道具 举报

    该用户从未签到

    0

    主题

    1873

    帖子

    1727

    积分

    金牌会员

    Rank: 6Rank: 6

    积分
    1727
    发表于 2021-7-15 16:37:21 | 显示全部楼层
    回复 支持 反对

    使用道具 举报

    该用户从未签到

    0

    主题

    4789

    帖子

    4623

    积分

    论坛元老

    Rank: 8Rank: 8

    积分
    4623
    发表于 2021-7-15 20:07:50 | 显示全部楼层
    回复 支持 反对

    使用道具 举报

    该用户从未签到

    0

    主题

    498

    帖子

    540

    积分

    高级会员

    Rank: 4

    积分
    540
    发表于 2021-7-16 13:36:53 | 显示全部楼层
    回复 支持 反对

    使用道具 举报

    该用户从未签到

    0

    主题

    1922

    帖子

    1762

    积分

    金牌会员

    Rank: 6Rank: 6

    积分
    1762
    发表于 2021-7-17 17:03:58 | 显示全部楼层
    感谢楼主的无私分享!要想蓝光高清电影网好 就靠你我他
    回复 支持 反对

    使用道具 举报

  • TA的每日心情
    开心
    2021-12-22 14:19
  • 签到天数: 6 天

    [LV.2]偶尔看看I

    0

    主题

    10

    帖子

    49

    积分

    新手上路

    Rank: 1

    积分
    49
    发表于 2021-8-5 00:08:29 来自手机 | 显示全部楼层
    太好了,我喜欢,让我选择吧
    回复 支持 反对

    使用道具 举报

    懒得打字嘛,点击右侧快捷回复 【右侧内容,后台自定义】
    您需要登录后才可以回帖 登录 | 立即注册

    本版积分规则

    郑重声明,本站所有作品片源来自互联网公开渠道,均为网友上传交流学习,影视版权均归原电影公司所有,如有侵犯版权,请与 2322694662@qq.com 联系,我们将立即删除。

    小黑屋|手机版|Archiver|百度统计|投诉|蓝光电影下载

    GMT+8, 2022-5-27 12:11 , Processed in 0.148961 second(s), 28 queries , Gzip On, MemCached On.

    Powered by Discuz! X3.4

    © 2001-2013 Comsenz Inc.

    快速回复 返回顶部 返回列表