快捷导航
查看: 32|回复: 9

[动作] 犬屋敷 真人版 Inuyashiki.2018.JAPANESE.1080p.BluRay.x264.DTS-WiKi 11.25GB

[复制链接]
  • TA的每日心情

    前天 21:35
  • 签到天数: 80 天

    [LV.6]常住居民II

    1967

    主题

    2047

    帖子

    3907

    积分

    发布组

    积分
    3907
    发表于 2021-7-18 15:28:04 | 显示全部楼层 |阅读模式
    1. 帖子完整标题:犬屋敷 真人版 Inuyashiki.2018.JAPANESE.1080p.BluRay.x264.DTS-WiKi 11.25GB
    复制代码
    犬屋敷 真人版 Inuyashiki.2018.JAPANESE.1080p.BluRay.x264.DTS-WiKi 11.25GB-1.png


    译  名 犬屋敷 真人版/Inuyashiki/杀戮重生犬屋敷(台)/犬屋
    片  名 いぬやしき
    年  代 2018
    产  地 日本
    类  别 动作 / 科幻
    语  言 日语
    上映日期 2018-04-20(日本)
    IMDb评分  6.6/10 from 1628 users
    IMDb链接  https://www.imdb.com/title/tt6340500/
    豆瓣评分 6.7/10 from 9812 users
    豆瓣链接 https://movie.douban.com/subject/26936272/
    片  长 127分钟
    导  演 佐藤信介 Shinsuke Sato
    编  剧 奥浩哉 Hiroya Oku / 桥本裕志 Hiroshi Hashimoto
    主  演 木梨宪武 Noritake Kinashi
           佐藤健 Takeru Satoh
           本乡奏多 Kanata Hong?
           二阶堂富美 Fumi Nikaidou
           三吉彩花 Ayaka Miyoshi
           福崎那由他 Nayuta Fukuzaki
           滨田麻里 Mari Hamada
           齐藤由贵 Yuki Sait?
           伊势谷友介 Y?suke Iseya
           安藤美优 Miyu Ando
           片山友希 Yuki Katayama
           日高七海 Nanami Hidaka
           饭田来丽 Raura Ida
           村上和也 Kazuya Murakami
           若林时英 Jiei Wakabayashi

    标  签 科幻 | 日本 | 日本电影 | 漫画改编 | 电影 | 漫改 | 佐藤健 | 2018

    简  介

      《犬舍》根据同名漫画改编。故事讲述了平凡无奇、将近60岁的普通上班族?犬屋敷, 在家里不受家人尊敬,也找不到自己活著的目标, 还被医生宣告将不久於人世。失意的他,却在公园与另一名少年被突如其来的外星生物砸到,整个身体都被摧毁了。不明的外星生物为了不影响地球的秩序,让犬屋敷和少年重生── 他们变成只有外表是人、身体却由机械所构成,拥有卓绝战斗能力的超强「人类」。两名尚拥有自己意志的「机械人类」会用这个力量作出什麼行动呢? 又会对世界带来什麼影响呢?
    1. Video
    2. ID                                       : 1
    3. Format                                   : AVC
    4. Format/Info                              : Advanced Video Codec
    5. Format profile                           : High@L4
    6. Format settings                          : CABAC / 5 Ref Frames
    7. Format settings, CABAC                   : Yes
    8. Format settings, ReFrames                : 5 frames
    9. Codec ID                                 : V_MPEG4/ISO/AVC
    10. Duration                                 : 2 h 6 min
    11. Bit rate                                 : 11.9 Mb/s
    12. Width                                    : 1 920 pixels
    13. Height                                   : 804 pixels
    14. Display aspect ratio                     : 2.40:1
    15. Frame rate mode                          : Constant
    16. Frame rate                               : 23.976 (24000/1001/189150) FPS
    17. Color space                              : YUV
    18. Chroma subsampling                       : 4:2:0
    19. Bit depth                                : 8 bits
    20. Scan type                                : Progressive
    21. Bits/(Pixel*Frame)                       : 0.322
    22. Stream size                              : 10.5 GiB (93%)
    23. Title                                    : x264_L4.1 @ 11,926 Kbps (crf 18)
    24. Writing library                          : x264 core 129 r2245+704+36 8e61944 tMod+MixAQ [High@L4:2:0 X86_64]
    25. Encoding settings                        : cabac=1 / ref=5 / deblock=1:-3:-3 / analyse=0x3:0x133 / me=umh / subme=11 / psy=1 / fade_compensate=0.00 / psy_rd=1.05:0.10 / mixed_ref=1 / me_range=64 / chroma_me=1 / trellis=2 / 8x8dct=1 / cqm=0 / deadzone=21,11 / fast_pskip=0 / chroma_qp_offset=-3 / threads=12 / lookahead_threads=2 / sliced_threads=0 / nr=0 / decimate=1 / interlaced=0 / bluray_compat=0 / constrained_intra=0 / fgo=0 / bframes=10 / b_pyramid=2 / b_adapt=2 / b_bias=0 / direct=3 / weightb=1 / open_gop=0 / weightp=2 / keyint=250 / keyint_min=23 / scenecut=40 / intra_refresh=0 / rc=crf / mbtree=0 / crf=18.0000 / qcomp=0.75 / qpmin=0 / qpmax=69 / qpstep=4 / ip_ratio=1.25 / pb_ratio=1.15 / aq=1 / aq-strength=0.65 / aq-sensitivity=10.00 / aq-ifactor=1.00 / aq-pfactor=1.00 / aq-bfactor=1.00 / aq2=0
    26. Language                                 : Japanese
    27. Default                                  : Yes
    28. Forced                                   : No

    29. Audio
    30. ID                                       : 2
    31. Format                                   : DTS
    32. Format/Info                              : Digital Theater Systems
    33. Codec ID                                 : A_DTS
    34. Duration                                 : 2 h 6 min
    35. Bit rate mode                            : Constant
    36. Bit rate                                 : 768 kb/s
    37. Channel(s)                               : 6 channels
    38. Channel layout                           : C L R Ls Rs LFE
    39. Sampling rate                            : 48.0 kHz
    40. Frame rate                               : 93.750 FPS (512 SPF)
    41. Bit depth                                : 24 bits
    42. Compression mode                         : Lossy
    43. Stream size                              : 693 MiB (6%)
    44. Title                                    : Japanese DTS 5.1 @ 768 Kbps
    45. Language                                 : Japanese
    46. Default                                  : Yes
    47. Forced                                   : No

    48. Text #1
    49. ID                                       : 3
    50. Format                                   : PGS
    51. Muxing mode                              : zlib
    52. Codec ID                                 : S_HDMV/PGS
    53. Codec ID/Info                            : Picture based subtitle format used on BDs/HD-DVDs
    54. Duration                                 : 2 h 5 min
    55. Bit rate                                 : 133 kb/s
    56. Count of elements                        : 7033
    57. Stream size                              : 120 MiB (1%)
    58. Title                                    : Japanese (PGS)
    59. Language                                 : Japanese
    60. Default                                  : No
    61. Forced                                   : No

    62. Text #2
    63. ID                                       : 4
    64. Format                                   : ASS
    65. Codec ID                                 : S_TEXT/ASS
    66. Codec ID/Info                            : Advanced Sub Station Alpha
    67. Duration                                 : 2 h 0 min
    68. Bit rate                                 : 63 b/s
    69. Count of elements                        : 1152
    70. Compression mode                         : Lossless
    71. Stream size                              : 56.6 KiB (0%)
    72. Title                                    : Traditional Chinese (SUBPIG)
    73. Language                                 : Chinese
    74. Default                                  : Yes
    75. Forced                                   : No

    76. Menu
    77. 00:00:00.000                             : :00:00:00.000
    78. 00:08:11.324                             : :00:08:11.324
    79. 00:13:49.412                             : :00:13:49.412
    80. 00:19:04.518                             : :00:19:04.518
    81. 00:24:45.609                             : :00:24:45.609
    82. 00:30:41.923                             : :00:30:41.923
    83. 00:38:23.885                             : :00:38:23.885
    84. 00:43:40.576                             : :00:43:40.576
    85. 00:49:53.199                             : :00:49:53.199
    86. 00:56:35.058                             : :00:56:35.058
    87. 01:00:14.152                             : :01:00:14.152
    88. 01:06:05.295                             : :01:06:05.295
    89. 01:13:47.298                             : :01:13:47.298
    90. 01:20:11.932                             : :01:20:11.932
    91. 01:23:43.894                             : :01:23:43.894
    92. 01:32:55.236                             : :01:32:55.236
    93. 01:44:05.197                             : :01:44:05.197
    94. 01:51:41.194                             : :01:51:41.194
    95. 01:56:47.292                             : :01:56:47.292
    96. 02:01:22.400                             : :02:01:22.400
    复制代码

    犬屋敷 真人版 Inuyashiki.2018.JAPANESE.1080p.BluRay.x264.DTS-WiKi 11.25GB-2.png
    犬屋敷 真人版 Inuyashiki.2018.JAPANESE.1080p.BluRay.x264.DTS-WiKi 11.25GB-3.png
    犬屋敷 真人版 Inuyashiki.2018.JAPANESE.1080p.BluRay.x264.DTS-WiKi 11.25GB-4.png
    本帖隐藏的内容需要VIP会员才可浏览,您需要升级才可浏览,点击这里升级VIP





    回复

    使用道具 举报

    该用户从未签到

    0

    主题

    2059

    帖子

    1693

    积分

    金牌会员

    Rank: 6Rank: 6

    积分
    1693
    发表于 2021-7-18 15:29:02 | 显示全部楼层
    回复 支持 反对

    使用道具 举报

    该用户从未签到

    0

    主题

    1609

    帖子

    1488

    积分

    金牌会员

    Rank: 6Rank: 6

    积分
    1488
    发表于 2021-7-18 16:59:01 | 显示全部楼层
    回复 支持 反对

    使用道具 举报

    该用户从未签到

    0

    主题

    1万

    帖子

    1万

    积分

    论坛元老

    Rank: 8Rank: 8

    积分
    16181
    发表于 2021-7-18 21:22:28 | 显示全部楼层

    是个好电影!必须要看的!多谢分享!
    回复 支持 反对

    使用道具 举报

    该用户从未签到

    0

    主题

    1万

    帖子

    1万

    积分

    论坛元老

    Rank: 8Rank: 8

    积分
    16181
    发表于 2021-7-19 18:52:23 | 显示全部楼层
    回复 支持 反对

    使用道具 举报

    该用户从未签到

    0

    主题

    1097

    帖子

    671

    积分

    高级会员

    Rank: 4

    积分
    671
    发表于 5 天前 | 显示全部楼层

    非常精彩的电影,下来收藏,感谢楼主
    回复 支持 反对

    使用道具 举报

    该用户从未签到

    0

    主题

    7774

    帖子

    7078

    积分

    论坛元老

    Rank: 8Rank: 8

    积分
    7078
    发表于 5 天前 | 显示全部楼层
    感谢楼主的无私分享!要想蓝光高清电影网好 就靠你我他
    回复 支持 反对

    使用道具 举报

    该用户从未签到

    0

    主题

    2万

    帖子

    1万

    积分

    论坛元老

    Rank: 8Rank: 8

    积分
    16777
    发表于 4 天前 | 显示全部楼层
    楼主太厉害了!楼主,电影应该很好看我觉得蓝光电影下载真是个好地方!
    回复 支持 反对

    使用道具 举报

    该用户从未签到

    0

    主题

    1万

    帖子

    1万

    积分

    论坛元老

    Rank: 8Rank: 8

    积分
    16181
    发表于 3 天前 | 显示全部楼层
    这个帖子不回对不起自己!我想我是一天也不能离开蓝光电影网
    回复 支持 反对

    使用道具 举报

    该用户从未签到

    0

    主题

    1万

    帖子

    1万

    积分

    论坛元老

    Rank: 8Rank: 8

    积分
    16181
    发表于 前天 20:49 | 显示全部楼层
    回复 支持 反对

    使用道具 举报

    懒得打字嘛,点击右侧快捷回复 【右侧内容,后台自定义】
    您需要登录后才可以回帖 登录 | 立即注册

    本版积分规则

    郑重声明,本站所有作品片源来自互联网公开渠道,均为网友上传交流学习,影视版权均归原电影公司所有,如有侵犯版权,请与 2322694662@qq.com 联系,我们将立即删除。

    小黑屋|手机版|Archiver|百度统计|投诉|蓝光电影下载

    GMT+8, 2021-7-27 17:41 , Processed in 0.098791 second(s), 27 queries , Gzip On, MemCached On.

    Powered by Discuz! X3.4

    © 2001-2013 Comsenz Inc.

    快速回复 返回顶部 返回列表