快捷导航
查看: 35|回复: 12

[传记] 凯利帮的真实历史/凯利帮正史 True.History.of.the.Kelly.Gang.2019.1080p.BluRay.X264-AMIABLE 19.

[复制链接]
  • TA的每日心情

    前天 21:35
  • 签到天数: 89 天

    [LV.6]常住居民II

    1929

    主题

    2020

    帖子

    4183

    积分

    发布组

    积分
    4183
    发表于 2021-7-18 18:42:33 | 显示全部楼层 |阅读模式
    1. 帖子完整标题:凯利帮的真实历史/凯利帮正史 True.History.of.the.Kelly.Gang.2019.1080p.BluRay.X264-AMIABLE 19.29GB
    复制代码
    凯利帮的真实历史/凯利帮正史 True.History.of.the.Kelly.Gang.2019.1080p.BluRay.X264-AMIABLE 19.-1.png


    译  名 凯利帮的真实历史/凯利帮正史
    片  名 True History of the Kelly Gang
    年  代 2019
    产  地 英国,法国,澳大利亚
    类  别 剧情 / 传记 / 犯罪
    语  言 英语,拉丁语
    上映日期 2019-09-11(多伦多电影节) / 2020-01-09(澳大利亚)
    IMDb评分  6/10 from 5265 users
    IMDb链接  https://www.imdb.com/title/tt4844140/
    豆瓣评分 6.2/10 from 1807 users
    豆瓣链接 https://movie.douban.com/subject/27192028/
    片  长 124分钟
    导  演 贾斯汀·库泽尔  Justin Kurzel
    编  剧 肖恩·格兰特 Shaun Grant / 彼得·凯里 Peter Carey
    主  演 乔治·麦凯 George MacKay
           埃茜·戴维斯 Essie Davis
           尼古拉斯·霍尔特 Nicholas Hoult
           托马辛·麦肯齐 Thomasin McKenzie
           肖恩·基南 Sean Keenan
           厄尔·凯夫 Earl Cave
           马龙·威廉姆斯 Marlon Williams
           查理·汉纳姆 Charlie Hunnam
           罗素·克劳 Russell Crowe
           艾米·克里斯蒂安 Amy Christian
           雅各布·柯林斯-莱维 Jacob Collins-Levy
           哈利·格林伍德 Harry Greenwood
           克劳迪娅·卡万 Claudia Karvan
           马凯拉·卡维纳赫 Markella Kavenagh
           戴克·蒙哥马利 Dacre Montgomery
           崔维斯·费米尔 Travis Fimmel

    标  签 犯罪 | 澳大利亚 | 传记 | 澳大利亚电影 | 剧情 | 2019 | 黑帮 | NicholasHoult

    简  介

      罗素·克劳、尼古拉斯·霍尔特、乔治·麦凯、艾斯·戴维斯加盟传记犯罪剧情新片《凯利帮的真实历史》(The True History of the Kelly Gang),贾斯汀·库泽尔(《麦克白》《刺客信条》)执导,明年三月澳大利亚开拍。
      
      肖恩·格兰特(《贾斯珀·琼斯》《柏林综合症》)编写剧本,基于Peter Carey所著同名布克奖获奖小说,讲述澳大利亚绿林好汉Edward "Ned" Kelly传奇的一生。凯利被公认为是最后一个,也是最著名的绿林好汉。因家庭遭遇变故而流亡澳大利亚,他和弟弟以及好友一起建立了“凯利帮”,反抗暴警和政府,在此期间谋杀了数名警官。他在人生中的最后大战中穿着防弹装甲与警察展开了激烈的枪战,身受重伤,成为唯一生还者,被关进墨尔本的监狱,于1880年被处以绞刑,年仅25岁。
      
      崔维斯·费米尔、肖恩·基南、达克雷·蒙特戈梅里(《怪奇物语》《恐龙战队》)、哈利·格林伍德、Thomasin McKenzie、Earl Cave等参演,Liz Watts、Hal Vogel、Brad Feinstein制片。
    1. Video
    2. ID                                       : 1
    3. Format                                   : AVC
    4. Format/Info                              : Advanced Video Codec
    5. Format profile                           : High@L4
    6. Format settings                          : CABAC / 4 Ref Frames
    7. Format settings, CABAC                   : Yes
    8. Format settings, Reference frames        : 4 frames
    9. Codec ID                                 : V_MPEG4/ISO/AVC
    10. Duration                                 : 2 h 5 min
    11. Bit rate                                 : 18.8 Mb/s
    12. Width                                    : 1 920 pixels
    13. Height                                   : 1 034 pixels
    14. Display aspect ratio                     : 1.85:1
    15. Frame rate mode                          : Constant
    16. Frame rate                               : 24.000 FPS
    17. Color space                              : YUV
    18. Chroma subsampling                       : 4:2:0
    19. Bit depth                                : 8 bits
    20. Scan type                                : Progressive
    21. Bits/(Pixel*Frame)                       : 0.394
    22. Stream size                              : 16.4 GiB (85%)
    23. Writing library                          : x264 core 161 r3015 4c2aafd
    24. Encoding settings                        : cabac=1 / ref=4 / deblock=1:-3:-3 / analyse=0x3:0x133 / me=umh / subme=9 / psy=1 / psy_rd=1.00:0.00 / mixed_ref=1 / me_range=32 / chroma_me=1 / trellis=2 / 8x8dct=1 / cqm=0 / deadzone=21,11 / fast_pskip=0 / chroma_qp_offset=-2 / threads=32 / lookahead_threads=2 / sliced_threads=0 / nr=0 / decimate=0 / interlaced=0 / bluray_compat=0 / constrained_intra=0 / bframes=3 / b_pyramid=2 / b_adapt=2 / b_bias=0 / direct=3 / weightb=1 / open_gop=0 / weightp=2 / keyint=250 / keyint_min=24 / scenecut=40 / intra_refresh=0 / rc=crf / mbtree=0 / crf=17.2 / qcomp=0.60 / qpmin=0 / qpmax=69 / qpstep=4 / ip_ratio=1.40 / pb_ratio=1.30 / aq=3:0.80
    25. Default                                  : Yes
    26. Forced                                   : No
    27. Color range                              : Limited
    28. Matrix coefficients                      : BT.709

    29. Audio
    30. ID                                       : 2
    31. Format                                   : DTS XLL
    32. Format/Info                              : Digital Theater Systems
    33. Commercial name                          : DTS-HD Master Audio
    34. Codec ID                                 : A_DTS
    35. Duration                                 : 2 h 5 min
    36. Bit rate mode                            : Variable
    37. Bit rate                                 : 3 275 kb/s
    38. Channel(s)                               : 6 channels
    39. Channel layout                           : C L R Ls Rs LFE
    40. Sampling rate                            : 48.0 kHz
    41. Frame rate                               : 93.750 FPS (512 SPF)
    42. Bit depth                                : 24 bits
    43. Compression mode                         : Lossless
    44. Stream size                              : 2.86 GiB (15%)
    45. Title                                    : DTS-HD MA 5.1
    46. Language                                 : English
    47. Default                                  : Yes
    48. Forced                                   : No

    49. Text #1
    50. ID                                       : 3
    51. Format                                   : UTF-8
    52. Codec ID                                 : S_TEXT/UTF8
    53. Codec ID/Info                            : UTF-8 Plain Text
    54. Duration                                 : 1 h 59 min
    55. Bit rate                                 : 54 b/s
    56. Count of elements                        : 1579
    57. Stream size                              : 47.8 KiB (0%)
    58. Title                                    : Stripped SRT
    59. Language                                 : English
    60. Default                                  : No
    61. Forced                                   : No

    62. Text #2
    63. ID                                       : 4
    64. Format                                   : UTF-8
    65. Codec ID                                 : S_TEXT/UTF8
    66. Codec ID/Info                            : UTF-8 Plain Text
    67. Duration                                 : 2 h 0 min
    68. Bit rate                                 : 59 b/s
    69. Count of elements                        : 1736
    70. Stream size                              : 52.2 KiB (0%)
    71. Title                                    : SDH SRT
    72. Language                                 : English
    73. Default                                  : No
    74. Forced                                   : No

    75. Text #3
    76. ID                                       : 5
    77. Format                                   : PGS
    78. Muxing mode                              : zlib
    79. Codec ID                                 : S_HDMV/PGS
    80. Codec ID/Info                            : Picture based subtitle format used on BDs/HD-DVDs
    81. Duration                                 : 2 h 0 min
    82. Bit rate                                 : 43.8 kb/s
    83. Count of elements                        : 3472
    84. Stream size                              : 37.7 MiB (0%)
    85. Title                                    : English SDH
    86. Language                                 : English
    87. Default                                  : No
    88. Forced                                   : No

    89. Menu
    90. 00:00:00.000                             : en:Chapter 01
    91. 00:13:26.000                             : en:Chapter 02
    92. 00:30:25.000                             : en:Chapter 03
    93. 00:47:51.000                             : en:Chapter 04
    94. 01:01:52.167                             : en:Chapter 05
    95. 01:17:01.750                             : en:Chapter 06
    96. 01:33:16.708                             : en:Chapter 07
    97. 01:51:24.000                             : en:Chapter 08
    复制代码

    凯利帮的真实历史/凯利帮正史 True.History.of.the.Kelly.Gang.2019.1080p.BluRay.X264-AMIABLE 19.-2.png
    本帖隐藏的内容需要VIP会员才可浏览,您需要升级才可浏览,点击这里升级VIP





    回复

    使用道具 举报

    该用户从未签到

    0

    主题

    3312

    帖子

    2405

    积分

    金牌会员

    Rank: 6Rank: 6

    积分
    2405
    发表于 2021-7-18 18:42:49 | 显示全部楼层
    回复 支持 反对

    使用道具 举报

    该用户从未签到

    0

    主题

    3312

    帖子

    2405

    积分

    金牌会员

    Rank: 6Rank: 6

    积分
    2405
    发表于 2021-7-18 20:01:25 | 显示全部楼层
    回复 支持 反对

    使用道具 举报

    该用户从未签到

    0

    主题

    3万

    帖子

    2万

    积分

    论坛元老

    Rank: 8Rank: 8

    积分
    26401
    发表于 2021-7-18 21:38:09 | 显示全部楼层
    回复 支持 反对

    使用道具 举报

    该用户从未签到

    0

    主题

    2万

    帖子

    1万

    积分

    论坛元老

    Rank: 8Rank: 8

    积分
    16777
    发表于 2021-7-18 21:46:04 | 显示全部楼层
    这个帖子不回对不起自己!我想我是一天也不能离开蓝光电影网
    回复 支持 反对

    使用道具 举报

    该用户从未签到

    0

    主题

    1659

    帖子

    1051

    积分

    金牌会员

    Rank: 6Rank: 6

    积分
    1051
    发表于 2021-7-19 01:06:55 | 显示全部楼层
    回复 支持 反对

    使用道具 举报

    该用户从未签到

    0

    主题

    3万

    帖子

    2万

    积分

    论坛元老

    Rank: 8Rank: 8

    积分
    26401
    发表于 2021-7-19 16:17:01 | 显示全部楼层
    楼主太厉害了!楼主,电影应该很好看我觉得蓝光电影下载真是个好地方!
    回复 支持 反对

    使用道具 举报

    该用户从未签到

    0

    主题

    2万

    帖子

    1万

    积分

    论坛元老

    Rank: 8Rank: 8

    积分
    16777
    发表于 7 天前 | 显示全部楼层
    回复 支持 反对

    使用道具 举报

  • TA的每日心情

    8 小时前
  • 签到天数: 33 天

    [LV.5]常住居民I

    1

    主题

    73

    帖子

    322

    积分

    中级会员

    Rank: 3Rank: 3

    积分
    322
    发表于 7 天前 | 显示全部楼层

    其实我一直觉得楼主的品味不错!呵呵!蓝光电影网太棒了!
    回复 支持 反对

    使用道具 举报

    该用户从未签到

    0

    主题

    1万

    帖子

    1万

    积分

    论坛元老

    Rank: 8Rank: 8

    积分
    16181
    发表于 7 天前 | 显示全部楼层
    回复 支持 反对

    使用道具 举报

    懒得打字嘛,点击右侧快捷回复 【右侧内容,后台自定义】
    您需要登录后才可以回帖 登录 | 立即注册

    本版积分规则

    郑重声明,本站所有作品片源来自互联网公开渠道,均为网友上传交流学习,影视版权均归原电影公司所有,如有侵犯版权,请与 2322694662@qq.com 联系,我们将立即删除。

    小黑屋|手机版|Archiver|百度统计|投诉|蓝光电影下载

    GMT+8, 2021-7-27 15:48 , Processed in 0.101558 second(s), 37 queries , Gzip On, MemCached On.

    Powered by Discuz! X3.4

    © 2001-2013 Comsenz Inc.

    快速回复 返回顶部 返回列表