快捷导航
查看: 45|回复: 13

[恐怖] 贞子3D 续集/贞子 2 : 鬼胎轮回 Sadako.2.2013.JAPANESE.1080p.BluRay.x264.DTS-WiKi 9.38GB

[复制链接]
  • TA的每日心情

    前天 21:35
  • 签到天数: 89 天

    [LV.6]常住居民II

    1929

    主题

    2020

    帖子

    4183

    积分

    发布组

    积分
    4183
    发表于 6 天前 | 显示全部楼层 |阅读模式
    1. 帖子完整标题:贞子3D 续集/贞子 2 : 鬼胎轮回 Sadako.2.2013.JAPANESE.1080p.BluRay.x264.DTS-WiKi 9.38GB
    复制代码
    贞子3D 续集/贞子 2 : 鬼胎轮回 Sadako.2.2013.JAPANESE.1080p.BluRay.x264.DTS-WiKi 9.38GB-1.png


    译  名 贞子3D 续集/贞子 2 : 鬼胎轮回(港)/贞子3D 第二部/贞子3D2
    片  名 貞子3D2
    年  代 2013
    产  地 日本
    类  别 恐怖
    语  言 日语
    上映日期 2013-08-30(日本)
    IMDb评分  4.4/10 from 603 users
    IMDb链接  https://www.imdb.com/title/tt2440362/
    豆瓣评分 4.3/10 from 1479 users
    豆瓣链接 https://movie.douban.com/subject/19971692/
    导  演 英勉 Tsutomu Hanabusa
    主  演 泷本美织 Miori Takimoto
           濑户康史 Koji Seto
           大泽逸美 Itsumi Osawa
           石原里美 Satomi Ishihara
           山本裕典 Yusuke Yamamoto
           田山凉成 Ry?sei Tayama
           平泽宏宏路 Kokoro Hirasawa

    标  签 恐怖 | 日本 | 贞子 | 惊悚 | 日本电影 | 3D | 2013 | 贞子3d2

    简  介

      痛失爱妻的安藤孝则(濑户康史 饰)将女儿凪(平泽宏路路 饰)托付给正研读临床心理学的妹妹枫子(泷本美织 饰)抚养。枫子尽心竭力,但是凪孤僻自闭,从不向任何人敞开心扉,还经常画一些可怕的画。与此同时,一度甚嚣尘上的诅咒视频再度流行,接连有人自杀身亡,事态严重引起了警方关注。枫子突然发现,似乎曾经触怒过凪的人都会成为诅咒视频的牺牲者。种种不安促使她探寻哥哥和嫂子过去的秘密,进而发现了关于贞子的恐怖线索和知情人。
      
      事态愈演愈烈,牺牲者也愈来愈多,被卷入漩涡中央的枫子,如何才能终止贞子绵亘多年的可怕诅咒?
    1. Video
    2. ID                                       : 1
    3. Format                                   : AVC
    4. Format/Info                              : Advanced Video Codec
    5. Format profile                           : High@L4
    6. Format settings                          : CABAC / 4 Ref Frames
    7. Format settings, CABAC                   : Yes
    8. Format settings, Reference frames        : 4 frames
    9. Codec ID                                 : V_MPEG4/ISO/AVC
    10. Duration                                 : 1 h 35 min
    11. Bit rate                                 : 12.5 Mb/s
    12. Width                                    : 1 920 pixels
    13. Height                                   : 1 080 pixels
    14. Display aspect ratio                     : 16:9
    15. Frame rate mode                          : Constant
    16. Frame rate                               : 23.976 (24000/1001/189150) FPS
    17. Color space                              : YUV
    18. Chroma subsampling                       : 4:2:0
    19. Bit depth                                : 8 bits
    20. Scan type                                : Progressive
    21. Bits/(Pixel*Frame)                       : 0.251
    22. Stream size                              : 8.37 GiB (89%)
    23. Writing library                          : x264 core 136 r2348+704+51 d1baef6 tMod [High@L4 X86_64]
    24. Encoding settings                        : cabac=1 / ref=4 / deblock=1:-3:-3 / analyse=0x3:0x133 / me=umh / subme=11 / psy=1 / fade_compensate=0.00 / psy_rd=1.05:0.00 / mixed_ref=1 / me_range=64 / chroma_me=1 / trellis=2 / 8x8dct=1 / cqm=0 / deadzone=21,11 / fast_pskip=0 / chroma_qp_offset=-2 / threads=12 / lookahead_threads=3 / sliced_threads=0 / nr=0 / decimate=0 / interlaced=0 / bluray_compat=0 / constrained_intra=0 / fgo=0 / bframes=12 / b_pyramid=2 / b_adapt=2 / b_bias=0 / direct=3 / weightb=1 / open_gop=0 / weightp=2 / keyint=250 / keyint_min=23 / scenecut=40 / intra_refresh=0 / rc_lookahead=120 / rc=2pass / mbtree=0 / bitrate=12500 / ratetol=1.0 / qcomp=0.70 / qpmin=0:0:0 / qpmax=69:69:69 / qpstep=4 / cplxblur=20.0 / qblur=0.5 / vbv_maxrate=50000 / vbv_bufsize=50000 / nal_hrd=none / ip_ratio=1.40 / pb_ratio=1.30 / aq=1:0.75 / aq-sensitivity=10.00 / aq-factor=1.00:1.00:1.00 / aq2=0 / aq3=0
    25. Default                                  : Yes
    26. Forced                                   : No
    27. Color range                              : Limited
    28. Matrix coefficients                      : BT.709

    29. Audio
    30. ID                                       : 2
    31. Format                                   : DTS
    32. Format/Info                              : Digital Theater Systems
    33. Codec ID                                 : A_DTS
    34. Duration                                 : 1 h 35 min
    35. Bit rate mode                            : Constant
    36. Bit rate                                 : 1 509 kb/s
    37. Channel(s)                               : 6 channels
    38. Channel layout                           : C L R Ls Rs LFE
    39. Sampling rate                            : 48.0 kHz
    40. Frame rate                               : 93.750 FPS (512 SPF)
    41. Bit depth                                : 16 bits
    42. Compression mode                         : Lossy
    43. Stream size                              : 1.01 GiB (11%)
    44. Language                                 : Japanese
    45. Default                                  : Yes
    46. Forced                                   : No

    47. Text
    48. ID                                       : 3
    49. Format                                   : UTF-8
    50. Codec ID                                 : S_TEXT/UTF8
    51. Codec ID/Info                            : UTF-8 Plain Text
    52. Duration                                 : 1 h 32 min
    53. Bit rate                                 : 13 b/s
    54. Count of elements                        : 432
    55. Stream size                              : 8.92 KiB (0%)
    56. Language                                 : English
    57. Default                                  : Yes
    58. Forced                                   : No

    59. Menu
    60. 00:00:00.000                             : en:00:00:00.000
    61. 00:07:42.837                             : en:00:07:42.837
    62. 00:17:32.385                             : en:00:17:32.385
    63. 00:22:22.633                             : en:00:22:22.633
    64. 00:33:20.957                             : en:00:33:20.957
    65. 00:40:31.512                             : en:00:40:31.512
    66. 00:45:59.215                             : en:00:45:59.215
    67. 00:56:14.413                             : en:00:56:14.413
    68. 01:04:04.382                             : en:01:04:04.382
    69. 01:11:39.587                             : en:01:11:39.587
    70. 01:21:10.657                             : en:01:21:10.657
    71. 01:29:29.239                             : en:01:29:29.239
    复制代码

    贞子3D 续集/贞子 2 : 鬼胎轮回 Sadako.2.2013.JAPANESE.1080p.BluRay.x264.DTS-WiKi 9.38GB-2.png
    贞子3D 续集/贞子 2 : 鬼胎轮回 Sadako.2.2013.JAPANESE.1080p.BluRay.x264.DTS-WiKi 9.38GB-3.png
    贞子3D 续集/贞子 2 : 鬼胎轮回 Sadako.2.2013.JAPANESE.1080p.BluRay.x264.DTS-WiKi 9.38GB-4.png

    本帖隐藏的内容需要VIP会员才可浏览,您需要升级才可浏览,点击这里升级VIP




    回复

    使用道具 举报

    该用户从未签到

    0

    主题

    5428

    帖子

    3498

    积分

    论坛元老

    Rank: 8Rank: 8

    积分
    3498
    发表于 6 天前 | 显示全部楼层

    非常精彩的电影,下来收藏,感谢楼主
    回复 支持 反对

    使用道具 举报

  • TA的每日心情
    开心
    2021-6-9 23:47
  • 签到天数: 13 天

    [LV.3]偶尔看看II

    1

    主题

    1743

    帖子

    1995

    积分

    金牌会员

    Rank: 6Rank: 6

    积分
    1995
    发表于 6 天前 | 显示全部楼层
    回复 支持 反对

    使用道具 举报

    该用户从未签到

    0

    主题

    3万

    帖子

    2万

    积分

    论坛元老

    Rank: 8Rank: 8

    积分
    26401
    发表于 6 天前 | 显示全部楼层
    回复 支持 反对

    使用道具 举报

    该用户从未签到

    0

    主题

    4081

    帖子

    2334

    积分

    金牌会员

    Rank: 6Rank: 6

    积分
    2334
    发表于 6 天前 | 显示全部楼层

    是个好电影!必须要看的!多谢分享!
    回复 支持 反对

    使用道具 举报

    该用户从未签到

    0

    主题

    2万

    帖子

    1万

    积分

    论坛元老

    Rank: 8Rank: 8

    积分
    16777
    发表于 6 天前 | 显示全部楼层
    回复 支持 反对

    使用道具 举报

    该用户从未签到

    0

    主题

    2万

    帖子

    1万

    积分

    论坛元老

    Rank: 8Rank: 8

    积分
    16777
    发表于 5 天前 | 显示全部楼层
    回复 支持 反对

    使用道具 举报

    该用户从未签到

    0

    主题

    3万

    帖子

    2万

    积分

    论坛元老

    Rank: 8Rank: 8

    积分
    26401
    发表于 5 天前 | 显示全部楼层
    感谢楼主的无私分享!要想蓝光高清电影网好 就靠你我他
    回复 支持 反对

    使用道具 举报

    该用户从未签到

    0

    主题

    569

    帖子

    279

    积分

    中级会员

    Rank: 3Rank: 3

    积分
    279
    发表于 5 天前 | 显示全部楼层
    回复 支持 反对

    使用道具 举报

    该用户从未签到

    0

    主题

    5428

    帖子

    3498

    积分

    论坛元老

    Rank: 8Rank: 8

    积分
    3498
    发表于 5 天前 | 显示全部楼层
    这个帖子不回对不起自己!我想我是一天也不能离开蓝光电影网
    回复 支持 反对

    使用道具 举报

    懒得打字嘛,点击右侧快捷回复 【右侧内容,后台自定义】
    您需要登录后才可以回帖 登录 | 立即注册

    本版积分规则

    郑重声明,本站所有作品片源来自互联网公开渠道,均为网友上传交流学习,影视版权均归原电影公司所有,如有侵犯版权,请与 2322694662@qq.com 联系,我们将立即删除。

    小黑屋|手机版|Archiver|百度统计|投诉|蓝光电影下载

    GMT+8, 2021-7-27 15:58 , Processed in 0.056380 second(s), 24 queries , Gzip On, MemCached On.

    Powered by Discuz! X3.4

    © 2001-2013 Comsenz Inc.

    快速回复 返回顶部 返回列表